Скачать через торрент музыку Big Engine - Turn It On - 2012, APE бесплатно без регистрации torrent

Если у вас наблюдаются проблемы со скриншотами, переходом по ссылками, скачиванием торрентов - проблемы в блокировщике рекламы AdBlock. #хорошегоДня!


Статистика раздачи
Размер:  235 MB   |    Зарегистрирован:  5 лет 1 месяц   |    .torrent скачан:  14 раз   |   
Раздают:  1  
   
Загрузка...
 
Автор Сообщение

Galfimbul

avatar Galfimbul


Big Engine - Turn It On

Жанр: Hard Rock
Страна-производитель диска: Pirat CD
Год издания: 2012
Аудиокодек: APE (*.ape)
Тип рипа: image+.cue
Битрейт аудио: lossless
Продолжительность: 30:08
Источник (релизер): Свой диск
Наличие сканов в содержимом раздачи: да
Треклист:
01. Turn It On [0:03:46.10]
02. Burn It Down [0:03:48.77]
03. If I Could [0:03:42.88]
04. Shake That Thing [0:03:33.04]
05. I'm Flyin' High [0:03:21.04]
06. Make Your Move [0:03:59.72]
07. Rollin' Child [0:03:21.82]
08. No More Time [0:04:34.28]
  
Exact Audio Copy V0.99 prebeta 4 from 23. January 2008

Отчёт EAC об извлечении, выполненном 20. июня 2012, 19:19

Big Engine / Turn It On

Дисковод: Optiarc DVD RW AD-7173A Adapter: 0 ID: 1

Режим чтения : ДостоверностьИспользование точного потока : ДаОтключение кэша аудио : ДаИспользование указателей C2 : Нет

Коррекция смещения при чтении : 48Способность читать области Lead-in и Lead-out : НетЗаполнение пропущенных сэмплов тишиной : ДаУдаление блоков с тишиной в начале и конце : НетПри вычислениях CRC использовались нулевые сэмплы : ДаИнтерфейс : Встроенный Win32-интерфейс для Win NT/2000

Выходной формат : Внутренние WAV-операцииФормат сэмплов : 44.100 Гц; 16 бит; стерео

TOC извлечённого CD

Трек | Старт | Длительность | Начальный сектор | Конечный сектор --------------------------------------------------------------------- 1 | 0:00.00 | 3:46.08 | 0 | 16957 2 | 3:46.08 | 3:48.58 | 16958 | 34115 3 | 7:34.66 | 3:42.66 | 34116 | 50831 4 | 11:17.57 | 3:33.03 | 50832 | 66809 5 | 14:50.60 | 3:21.03 | 66810 | 81887 6 | 18:11.63 | 3:59.54 | 81888 | 99866 7 | 22:11.42 | 3:21.62 | 99867 | 115003 8 | 25:33.29 | 4:34.21 | 115004 | 135574

Характеристики диапазона извлечения и сообщения об ошибках

Выбранный диапазон

Имя файла D:\РАЗНОЕ\Big Engine - Turn It On.wav

Пиковый уровень 100.0 % Качество диапазона 100.0 % CRC теста FBEF45D4 CRC копии FBEF45D4 Копирование... OK

Ошибок не произошло

AccurateRip: сводка

Трек 1 нет в базе данныхТрек 2 нет в базе данныхТрек 3 нет в базе данныхТрек 4 нет в базе данныхТрек 5 нет в базе данныхТрек 6 нет в базе данныхТрек 7 нет в базе данныхТрек 8 нет в базе данных

Ни одного трека нет в базе AccurateRip

Конец отчёта


Трекер:  [ 22-Июн-2012 17:04 ]

  

Скачать .torrent

Размер .torrent файла 19 KB


Размер: 235 MB
Хэш (hash) релиза: 72c62c5b18ee6b85695fbf68b3517e90de136e68

Еще никто не оставлял запись к записи скачать торрент Big Engine - Turn It On - 2012, APE . Будь первым!

!Обратная связь