Скачать через торрент музыку Ton Steine Scherben - Live II - 1996, APE бесплатно без регистрации torrent

Если у вас наблюдаются проблемы со скриншотами, переходом по ссылками, скачиванием торрентов - проблемы в блокировщике рекламы AdBlock. #хорошегоДня!


Статистика раздачи
Размер:  326 MB   |    Зарегистрирован:  5 лет 2 месяца   |    .torrent скачан:  21 раз   |   
Раздают:  1  
   
Загрузка...
 
Автор Сообщение

Galfimbul

avatar Galfimbul


Ton Steine Scherben / Live II

Жанр: Polit/Krautrock
Страна-производитель диска: Germany
Год издания: 1996
Издатель (лейбл): David Volksmund
Номер по каталогу: 2017-2
Страна: Germany
Аудиокодек: APE (*.ape)
Тип рипа: image+.cue
Битрейт аудио: lossless
Продолжительность: 00:49:35
Источник (релизер): avax
Наличие сканов в содержимом раздачи: нет
Треклист:
1 Wenn Die Nacht Am Tiefsten 3:26
2 Wir Müssen Hier Raus 5:02
3 Halt Dich An Deiner Liebe Fest 4:53
4 Steig Ein 4:39
5 Kleine Freuden 5:52
6 Bist Du's 6:23
7 Kommen Sie Schnell 6:51
8 Der Traum Ist Aus 5:51
9 Land In Sicht 6:35
  
Exact Audio Copy V1.0 beta 2 from 29. April 2011

EAC extraction logfile from 11. March 2012, 0:20

Ton Steine Scherben / Live II

Used drive : PIONEER BD-RW BDR-206 Adapter: 2 ID: 3

Read mode : SecureUtilize accurate stream : YesDefeat audio cache : YesMake use of C2 pointers : No

Read offset correction : 667Overread into Lead-In and Lead-Out : NoFill up missing offset samples with silence : YesDelete leading and trailing silent blocks : NoNull samples used in CRC calculations : YesUsed interface : Native Win32 interface for Win NT & 2000

Used output format : User Defined EncoderSelected bitrate : 896 kBit/sQuality : HighAdd ID3 tag : NoCommand line compressor : C:\Program Files\FLAC\flac.exeAdditional command line options : -5 -T "Artist=%artist%" -T "Title=%title%" -T "Album=%albumtitle%" -T "Date=%year%" -T "Tracknumber=%tracknr%" -T "Genre=%genre%" %source% -o %dest%

TOC of the extracted CD

Track | Start | Length | Start sector | End sector --------------------------------------------------------- 1 | 0:00.00 | 3:24.15 | 0 | 15314 2 | 3:24.15 | 5:02.45 | 15315 | 38009 3 | 8:26.60 | 4:53.12 | 38010 | 59996 4 | 13:19.72 | 4:41.20 | 59997 | 81091 5 | 18:01.17 | 5:52.18 | 81092 | 107509 6 | 23:53.35 | 6:23.45 | 107510 | 136279 7 | 30:17.05 | 6:51.62 | 136280 | 167166 8 | 37:08.67 | 5:51.13 | 167167 | 193504 9 | 43:00.05 | 6:35.29 | 193505 | 223158

Range status and errors

Selected range

Filename I:\=== VINYL RIPS ===\=== EAC===\X FRESH RIP\Ton Steine Scherben - Live II.wav

Peak level 100.0 % Extraction speed 5.5 X Range quality 99.9 % Copy CRC 44C853D9 Copy OK

No errors occurred

AccurateRip summary

Track 1 accurately ripped (confidence 4) [AC42B455] (AR v1)Track 2 accurately ripped (confidence 4) [435AC108] (AR v1)Track 3 accurately ripped (confidence 4) [95D166E3] (AR v1)Track 4 accurately ripped (confidence 4) [93C35876] (AR v1)Track 5 accurately ripped (confidence 4) [E7ACA42F] (AR v1)Track 6 accurately ripped (confidence 4) [D71A2664] (AR v1)Track 7 accurately ripped (confidence 4) [449D7601] (AR v1)Track 8 accurately ripped (confidence 4) [2EE82166] (AR v1)Track 9 accurately ripped (confidence 4) [8A37F931] (AR v1)

All tracks accurately ripped

End of status report

==== Log checksum CE5C6F039168EECAD9F6A28B05D2D975F57106A67F87331C4AF956186C6D31AC ====
  
AUDIOCHECKER v2.0 beta (build 457) - by Dester - <a href="mailto:opdester@freemail.hu" class="postLink">opdester@freemail.hu</a>~~~~~~~~~~~~~~~~~~~~~~~~~~~~~~~~~~-=== DO NOT EDIT THIS FILE! ===-

Path: ...\Ton Steine Scherben - Live II {Germany 1996}

1 -=- Ton Steine Scherben - Live II.wav -=- CDDA (99%)

154017940


Трекер:  [ 22-Июн-2012 17:03 ]

  

Скачать .torrent

Размер .torrent файла 13 KB


Размер: 326 MB
Хэш (hash) релиза: ba11b77cf416a56336737f2b8e23164161d44171

Еще никто не оставлял запись к записи скачать торрент Ton Steine Scherben - Live II - 1996, APE . Будь первым!

!Обратная связь