Скачать через торрент музыку ZZ Top - Fandango! - 1975, WavPack бесплатно без регистрации torrent

Если у вас наблюдаются проблемы со скриншотами, переходом по ссылками, скачиванием торрентов - проблемы в блокировщике рекламы AdBlock. #хорошегоДня!


Статистика раздачи
Размер:  245 MB   |    Зарегистрирован:  5 лет 1 месяц   |    .torrent скачан:  14 раз   |   
Раздают:  1  
   
Загрузка...
 
Автор Сообщение

Galfimbul

avatar Galfimbul


ZZ Top / Fandango!

Жанр: Blues Rock
Страна-производитель диска: Germany
Год издания: 1975
Издатель (лейбл): Warner Bros.
Номер по каталогу: 7599-27382-2
Страна: USA
Аудиокодек: WavPack (*.wv)
Тип рипа: image+.cue
Битрейт аудио: lossless
Продолжительность: 31:48
Наличие сканов в содержимом раздачи: да
Треклист:
01. Thunderbird (04:09)
02. Jailhouse Rock (01:57)
03. Backdoor Medley (09:54)
04. Nasty Dogs and Funky Kings (02:50)
05. Blue Jean Blues (04:46)
06. Balinese (02:38)
07. Mexican Blackbird (03:06)
08. Heard It on the X (02:29)
09. Tush (02:15)
  
Exact Audio Copy V1.0 beta 1 from 15. November 2010

EAC extraction logfile from 27. January 2011, 23:33

ZZ Top / Fandango

Used drive : PLEXTOR CD-R PREMIUM Adapter: 1 ID: 0

Read mode : SecureUtilize accurate stream : YesDefeat audio cache : YesMake use of C2 pointers : No

Read offset correction : 30Overread into Lead-In and Lead-Out : NoFill up missing offset samples with silence : YesDelete leading and trailing silent blocks : NoNull samples used in CRC calculations : YesUsed interface : Native Win32 interface for Win NT & 2000

Used output format : User Defined EncoderSelected bitrate : 1024 kBit/sQuality : HighAdd ID3 tag : NoCommand line compressor : C:\!tools\wavpack.exeAdditional command line options : -hlm %s

TOC of the extracted CD

Track | Start | Length | Start sector | End sector --------------------------------------------------------- 1 | 0:00.00 | 4:08.50 | 0 | 18649 2 | 4:08.50 | 1:56.70 | 18650 | 27419 3 | 6:05.45 | 9:54.17 | 27420 | 71986 4 | 15:59.62 | 2:49.70 | 71987 | 84731 5 | 18:49.57 | 4:45.38 | 84732 | 106144 6 | 23:35.20 | 2:38.30 | 106145 | 118024 7 | 26:13.50 | 3:05.60 | 118025 | 131959 8 | 29:19.35 | 2:28.57 | 131960 | 143116 9 | 31:48.17 | 2:14.53 | 143117 | 153219

Range status and errors

Selected range

Filename D:\CB_RAB\ZZ Top - Fandango\ZZ Top - Fandango.wav

Peak level 97.7 % Extraction speed 0.4 X Range quality 100.0 % Test CRC E1354DEF Copy CRC E1354DEF Copy OK

No errors occurred

AccurateRip summary

Track 1 accurately ripped (confidence 26) [4EB23B89]Track 2 accurately ripped (confidence 26) [D8C8419E]Track 3 accurately ripped (confidence 26) [0CAE3C7B]Track 4 accurately ripped (confidence 27) [AE95E844]Track 5 accurately ripped (confidence 27) [DA3E7496]Track 6 accurately ripped (confidence 27) [19D15341]Track 7 accurately ripped (confidence 27) [158D261C]Track 8 accurately ripped (confidence 27) [A5C938C2]Track 9 accurately ripped (confidence 27) [AF7D2B88]

All tracks accurately ripped

End of status report

==== Log checksum 1168BCA4AEC2D0AEF4456164E8499E40465CEEA5800D32E3B7EF9D41129C58A6 ====
  
REM GENRE "Rock"REM DATE 1975REM DISCID 6807FA09REM COMMENT "ExactAudioCopy v1.0b1"CATALOG 7599273820208PERFORMER "ZZ Top"TITLE "Fandango"FILE "ZZ Top - Fandango.wv" WAVE TRACK 01 AUDIO TITLE "Thunderbird" PERFORMER "ZZ Top" INDEX 01 00:00:00 TRACK 02 AUDIO TITLE "Jailhouse Rock" PERFORMER "ZZ Top" INDEX 01 04:08:50 TRACK 03 AUDIO TITLE "Backdoor Medley" PERFORMER "ZZ Top" INDEX 01 06:05:45 TRACK 04 AUDIO TITLE "Nasty Dogs And Funky Kings" PERFORMER "ZZ Top" INDEX 00 15:57:37 INDEX 01 15:59:62 TRACK 05 AUDIO TITLE "Blue Jean Blues" PERFORMER "ZZ Top" INDEX 00 18:44:17 INDEX 01 18:49:57 TRACK 06 AUDIO TITLE "Balinese" PERFORMER "ZZ Top" INDEX 00 23:31:22 INDEX 01 23:35:20 TRACK 07 AUDIO TITLE "Mexican Blackbird" PERFORMER "ZZ Top" INDEX 00 26:11:67 INDEX 01 26:13:50 TRACK 08 AUDIO TITLE "Heard It On The X" PERFORMER "ZZ Top" INDEX 00 29:17:47 INDEX 01 29:19:35 TRACK 09 AUDIO TITLE "Tush" PERFORMER "ZZ Top" INDEX 00 31:46:45 INDEX 01 31:48:17
Доп. информация: Скачано с дружественного сайта
Об альбоме (сборнике): 4-й альбом ZZ Top. Первые три песни - это концертные записи, произведённые в The Warehouse в Нью-Орлеане, остальное записано в студии.Не ремастер.

Трекер:  [ 22-Июн-2012 17:03 ]

  

Скачать .torrent

Размер .torrent файла 20 KB


Размер: 245 MB
Хэш (hash) релиза: 46be5884a218b0f3033f71173a3294248c19edab

Еще никто не оставлял запись к записи скачать торрент ZZ Top - Fandango! - 1975, WavPack . Будь первым!

!Обратная связь