Скачать через торрент музыку Jettblack - Raining Rock - 2012, APE бесплатно без регистрации torrent

Если у вас наблюдаются проблемы со скриншотами, переходом по ссылками, скачиванием торрентов - проблемы в блокировщике рекламы AdBlock. #хорошегоДня!


Статистика раздачи
Размер:  402 MB   |    Зарегистрирован:  5 лет 3 месяца   |    .torrent скачан:  22 раза   |   
Раздают:  1  
   
Загрузка...
 
Автор Сообщение

Galfimbul

avatar Galfimbul


Jettblack / Raining Rock

Жанр: Hard Rock
Год издания: 2012
Издатель (лейбл): Spinefarm Records
Номер по каталогу: Spine702052
Страна: UK
Аудиокодек: APE (*.ape)
Тип рипа: image+.cue
Битрейт аудио: lossless
Продолжительность: 54:47
Источник (релизер): moole.ru (GriffonNest)
Наличие сканов в содержимом раздачи: да
Треклист:
01. Intro 1:09
02. Raining Rock 3:44
03. Less Torque, More Thrust 3:42
04. Prison Of Love 4:05
05. System 4:00
06. Black Gold 7:10
07. Something About This Girl 3:44
08. Sunshine 3:20
09. Temptation 3:53
10. Never Gonna Give It Up 3:18
11. In-Between Lovers 3:57
12. Side Of The Road 3:31
13. The Sweet And The Brave 5:32
14. Raining Rock (feat. Udo Dirkschneider) [Bonus Track] 3:42
  
Exact Audio Copy V0.99 prebeta 5 from 4. May 2009

EAC extraction logfile from 11. June 2012, 18:47

Jettblack / Raining Rock

Used drive : HL-DT-STDVDRAM GH24LS70 Adapter: 1 ID: 1

Read mode : SecureUtilize accurate stream : YesDefeat audio cache : YesMake use of C2 pointers : No

Read offset correction : 667Overread into Lead-In and Lead-Out : NoFill up missing offset samples with silence : YesDelete leading and trailing silent blocks : NoNull samples used in CRC calculations : YesUsed interface : Installed external ASPI interface

Used output format : Internal WAV RoutinesSample format : 44.100 Hz; 16 Bit; Stereo

TOC of the extracted CD

Track | Start | Length | Start sector | End sector --------------------------------------------------------- 1 | 0:00.00 | 1:09.22 | 0 | 5196 2 | 1:09.22 | 3:43.67 | 5197 | 21988 3 | 4:53.14 | 3:41.59 | 21989 | 38622 4 | 8:34.73 | 4:05.05 | 38623 | 57002 5 | 12:40.03 | 3:59.65 | 57003 | 74992 6 | 16:39.68 | 7:10.31 | 74993 | 107273 7 | 23:50.24 | 3:43.59 | 107274 | 124057 8 | 27:34.08 | 3:19.38 | 124058 | 139020 9 | 30:53.46 | 3:53.31 | 139021 | 156526 10 | 34:47.02 | 3:17.47 | 156527 | 171348 11 | 38:04.49 | 3:56.73 | 171349 | 189121 12 | 42:01.47 | 3:31.06 | 189122 | 204952 13 | 45:32.53 | 5:32.25 | 204953 | 229877 14 | 51:05.03 | 3:42.28 | 229878 | 246555

Range status and errors

Selected range

Filename E:\Rip by GriffonNest\Jettblack - Raining Rock (2012)\Raining Rock.wav

Peak level 100.0 % Range quality 100.0 % Copy CRC FB9EC8DE Copy OK

No errors occurred

End of status report


Трекер:  [ 22-Июн-2012 17:03 ]

  

Скачать .torrent

Размер .torrent файла 17 KB


Размер: 402 MB
Хэш (hash) релиза: fd768fa95e19933f5fd905ba0340795777245963

Еще никто не оставлял запись к записи скачать торрент Jettblack - Raining Rock - 2012, APE . Будь первым!

!Обратная связь