Скачать через торрент музыку Magenta - The Singles - 2007, бесплатно без регистрации torrent

Если у вас наблюдаются проблемы со скриншотами, переходом по ссылками, скачиванием торрентов - проблемы в блокировщике рекламы AdBlock. #хорошегоДня!


Статистика раздачи
Размер:  497 MB   |    Зарегистрирован:  5 лет 4 месяца   |    .torrent скачан:  153 раза   |   
Раздают:  1  
   
Загрузка...
 
Автор Сообщение

Galfimbul

avatar Galfimbul


Magenta / The Singles

Жанр: Neo Progressive
Страна-производитель диска: UK
Год издания: 2007
Издатель (лейбл): TigerMoth Records
Номер по каталогу: TMR002
Аудиокодек: FLAC (*.flac)
Тип рипа: image+.cue
Битрейт аудио: lossless
Продолжительность: 01:19:14
Источник (релизер): CD
Наличие сканов в содержимом раздачи: да
Треклист:
01. Speechless (Single Version) [0:04:04.73]
02. Anger [0:05:50.37]
03. Broken [0:04:07.31]
04. Lemminkainen's Lament [0:04:21.43]
05. I'm Alive [0:05:09.16]
06. Cold (2007 acoustic mix) [0:05:14.23]
07. King Of The Skies [0:04:42.44]
08. Call Me [0:04:54.48]
09. Night And Day [0:04:14.50]
10. Essence Of Love (Instrumental) [0:04:48.18]
11. Sunshine Saviour [0:05:53.25]
12. Opus 3 (Instrumental) [0:02:09.41]
13. Pride (Full Version) [0:13:43.25]
14. Sloth (Orchestral Mix) [0:10:00.12]
  
Exact Audio Copy V0.99 prebeta 5 from 4. May 2009

Отчёт EAC об извлечении, выполненном 19. июня 2012, 18:16

Magenta / The Singles

Дисковод: PLEXTOR DVDR PX-880SA Adapter: 4 ID: 2

Режим чтения : ДостоверностьИспользование точного потока : ДаОтключение кэша аудио : ДаИспользование указателей C2 : Нет

Коррекция смещения при чтении : 6Способность читать области Lead-in и Lead-out : НетЗаполнение пропущенных сэмплов тишиной : ДаУдаление блоков с тишиной в начале и конце : НетПри вычислениях CRC использовались нулевые сэмплы : ДаИнтерфейс : Встроенный Win32-интерфейс для Win NT/2000

Выходной формат : Внутренние WAV-операцииФормат сэмплов : 44.100 Гц; 16 бит; стерео

TOC извлечённого CD

Трек | Старт | Длительность | Начальный сектор | Конечный сектор --------------------------------------------------------------------- 1 | 0:00.00 | 4:04.73 | 0 | 18372 2 | 4:04.73 | 5:50.37 | 18373 | 44659 3 | 9:55.35 | 4:07.31 | 44660 | 63215 4 | 14:02.66 | 4:21.43 | 63216 | 82833 5 | 18:24.34 | 5:09.16 | 82834 | 106024 6 | 23:33.50 | 5:14.23 | 106025 | 129597 7 | 28:47.73 | 4:42.44 | 129598 | 150791 8 | 33:30.42 | 4:54.48 | 150792 | 172889 9 | 38:25.15 | 4:14.50 | 172890 | 191989 10 | 42:39.65 | 4:48.18 | 191990 | 213607 11 | 47:28.08 | 5:53.25 | 213608 | 240107 12 | 53:21.33 | 2:09.41 | 240108 | 249823 13 | 55:30.74 | 13:43.25 | 249824 | 311573 14 | 69:14.24 | 10:00.12 | 311574 | 356585

Характеристики диапазона извлечения и сообщения об ошибках

Выбранный диапазон

Имя файла M:\СВОИ\Magenta - The Singles - 2007\Magenta - The Singles.wav

Пиковый уровень 99.9 % Качество диапазона 99.9 % CRC теста 6996258E CRC копии 6996258E Копирование... OK

Ошибок не произошло

AccurateRip: сводка

Трек 1 точное извлечение (доверие 7) [F1D6A049]Трек 2 точное извлечение (доверие 7) [EC535B06]Трек 3 точное извлечение (доверие 7) [0CCABDE7]Трек 4 точное извлечение (доверие 7) [B262BDCC]Трек 5 точное извлечение (доверие 7) [C1F133DC]Трек 6 точное извлечение (доверие 7) [2097B1D6]Трек 7 точное извлечение (доверие 7) [7C2B336E]Трек 8 точное извлечение (доверие 7) [A8E9C84B]Трек 9 точное извлечение (доверие 7) [7BE9C405]Трек 10 точное извлечение (доверие 7) [99DCEFCF]Трек 11 точное извлечение (доверие 7) [965C0D9A]Трек 12 точное извлечение (доверие 7) [CB2E3CF9]Трек 13 точное извлечение (доверие 7) [5BFDB2F7]Трек 14 точное извлечение (доверие 7) [E0FE343C]

Все треки извлечены точно

Конец отчёта
  
-----------------------

DON'T MODIFY THIS FILE

-----------------------

PERFORMER: auCDtect Task Manager, ver. 1.5.1RC4 build 1.5.1.5Copyright (c) 2008-2010 y-soft. All rights reservedhttp://y-soft.org

ANALYZER: auCDtect: CD records authenticity detector, version 0.8.2Copyright (c) 2004 Oleg Berngardt. All rights reserved.Copyright (c) 2004 Alexander Djourik. All rights reserved.

FILE: Magenta - The Singles.flac Size: 508218797 Hash: FDEBF0ABC65D29759CA8A4BB54644C73 Accuracy: -m0 Conclusion: CDDA 100% Signature: DBB19219E51836A0D9B1CEA66F2FB45808FADFB1
  
2007 release of 14 tracks with of every song that has made up the band's four EP/singles. Eight of thesetracks have been specially re-recorded exclusively for this release and none of them have beenavailable on a full length CD before. Total running time 79 minutes.
All tracks Produced and Mixed by Rob Reed

Rob Reed: Keyboards/Guitar
Christina: Vocal
Chris Fry: Guitars
Martin Rosser: Guitars
Dan Fry: Bass
Alan Mason-Jones: Drums

Troy Donockley: Uilleann Pipes and Flutes on Night And Day
Tim Robinson: Drums on Pride
Stephan Rhys Williams: Vocal on Sunshine Saviour

Tracks 1-11 recorded and mixed Jan-Feb 2007


Трекер:  [ 22-Июн-2012 17:03 ]

  

Скачать .torrent

Размер .torrent файла 20 KB


Размер: 497 MB
Хэш (hash) релиза: 245fd8163d15e09e5fd93a215518676da59203b4

Еще никто не оставлял запись к записи скачать торрент Magenta - The Singles - 2007, . Будь первым!

!Обратная связь