Скачать через торрент музыку Operation Id - Legs - 2011, бесплатно без регистрации torrent

Если у вас наблюдаются проблемы со скриншотами, переходом по ссылками, скачиванием торрентов - проблемы в блокировщике рекламы AdBlock. #хорошегоДня!


Статистика раздачи
Размер:  259 MB   |    Зарегистрирован:  5 лет 1 месяц   |    .torrent скачан:  23 раза   |   
Раздают:  1  
   
Загрузка...
 
Автор Сообщение

Galfimbul

avatar Galfimbul


Operation Id / Legs

Жанр: avant-prog/prog-rock/jazz-rock
Страна-производитель диска: USA
Год издания: 2011
Издатель (лейбл): Table & Chairs
Номер по каталогу: T&C003
Страна: USA
Аудиокодек: FLAC (*.flac)
Тип рипа: image+.cue
Битрейт аудио: lossless
Источник (релизер): Собственный рип
Наличие сканов в содержимом раздачи: да
Треклист:
1. Here I Am
2. Think Accessories
3. ... Warning
4. Seal Your Sight So Your Body Is Gone
5. Different People`s Perception Of The Same Thing
6. The Muse
7. Where Are You?
8. Emply Space
9. Frightened Explorer
  
Exact Audio Copy V1.0 beta 3 from 29. August 2011

EAC extraction logfile from 26. June 2012, 14:26

Operation ID / Legs

Used drive : Optiarc DVD RW AD-7243S Adapter: 0 ID: 1

Read mode : SecureUtilize accurate stream : YesDefeat audio cache : YesMake use of C2 pointers : No

Read offset correction : 48Overread into Lead-In and Lead-Out : NoFill up missing offset samples with silence : YesDelete leading and trailing silent blocks : NoNull samples used in CRC calculations : YesUsed interface : Native Win32 interface for Win NT & 2000

Used output format : User Defined EncoderSelected bitrate : 128 kBit/sQuality : HighAdd ID3 tag : NoCommand line compressor : C:\Program Files\Exact Audio Copy\FLAC\FLAC.EXEAdditional command line options : V -8 -T "Date=%year%" -T "Genre=%genre%" %source%

TOC of the extracted CD

Track | Start | Length | Start sector | End sector --------------------------------------------------------- 1 | 0:00.00 | 2:30.64 | 0 | 11313 2 | 2:30.64 | 5:03.21 | 11314 | 34059 3 | 7:34.10 | 6:02.13 | 34060 | 61222 4 | 13:36.23 | 7:04.15 | 61223 | 93037 5 | 20:40.38 | 4:51.37 | 93038 | 114899 6 | 25:32.00 | 5:17.58 | 114900 | 138732 7 | 30:49.58 | 3:09.27 | 138733 | 152934 8 | 33:59.10 | 4:51.27 | 152935 | 174786 9 | 38:50.37 | 4:58.65 | 174787 | 197201

Range status and errors

Selected range

Filename C:\Documents and Settings\S\Мои документы\Torrent раздача\Operation ID - Legs.wav

Peak level 98.8 % Extraction speed 3.7 X Range quality 100.0 % Test CRC 547C0063 Copy CRC 547C0063 Copy OK

No errors occurred

AccurateRip summary

Track 1 accurately ripped (confidence 1) [9E20894F] (AR v1)Track 2 accurately ripped (confidence 1) [7A73D840] (AR v1)Track 3 accurately ripped (confidence 1) [7B81315E] (AR v1)Track 4 accurately ripped (confidence 1) [AF464FA7] (AR v1)Track 5 accurately ripped (confidence 1) [7D2AE341] (AR v1)Track 6 accurately ripped (confidence 1) [814884E4] (AR v1)Track 7 accurately ripped (confidence 1) [6DDD471A] (AR v1)Track 8 accurately ripped (confidence 1) [7BE833A3] (AR v1)Track 9 accurately ripped (confidence 1) [F74858D4] (AR v1)

All tracks accurately ripped

End of status report

==== Log checksum 2CCC1CF2D4550F4759255793E30948FD99AA362F89A59AA167383962EEA080B2 ====
  
REM GENRE "Progressive Rock"REM DATE 2011REM DISCID 600A4509REM COMMENT "ExactAudioCopy v1.0b3"PERFORMER "Operation ID"TITLE "Legs"FILE "Operation ID - Legs.flac" WAVE TRACK 01 AUDIO TITLE "Here I Am" PERFORMER "Operation ID" ISRC US5JE1100023 FLAGS DCP INDEX 01 00:00:00 TRACK 02 AUDIO TITLE "Think Accessories" PERFORMER "Operation ID" ISRC US5JE1100024 FLAGS DCP INDEX 01 02:30:64 TRACK 03 AUDIO TITLE "---Warning" PERFORMER "Operation ID" ISRC US5JE1100025 FLAGS DCP INDEX 01 07:34:10 TRACK 04 AUDIO TITLE "Seal Your Sight So Your Body Is Gone" PERFORMER "Operation ID" ISRC US5JE1100026 FLAGS DCP INDEX 01 13:36:23 TRACK 05 AUDIO TITLE "Different People's Perception of the Same Thing" PERFORMER "Operation ID" ISRC US5JE1100027 FLAGS DCP INDEX 01 20:40:38 TRACK 06 AUDIO TITLE "The Muse" PERFORMER "Operation ID" ISRC US5JE1100028 FLAGS DCP INDEX 01 25:32:00 TRACK 07 AUDIO TITLE "Where Are You?" PERFORMER "Operation ID" ISRC US5JE1100029 FLAGS DCP INDEX 01 30:49:58 TRACK 08 AUDIO TITLE "Empty Space" PERFORMER "Operation ID" ISRC US5JE1100030 FLAGS DCP INDEX 01 33:59:10 TRACK 09 AUDIO TITLE "Frightened Explorer" PERFORMER "Operation ID" ISRC US5JE1100031 FLAGS DCP INDEX 01 38:50:37
I. Arteaga - sax
J. Borkowski - guitar
R. Hanlon - synth.
D. Balatero - bass
E. Woodle - drums


Трекер:  [ 22-Июн-2012 17:02 ]

  

Скачать .torrent

Размер .torrent файла 11 KB


Размер: 259 MB
Хэш (hash) релиза: 1886a743c16bdf40f22054ea8be78d104924d289

Торренты, похожие на Operation Id - Legs - 2011, скачать торрент

Форум Название Автор Размер S L Добавлен
Зарубежный Rock ·· (RIO | Avant-Prog) Operation ID - Legs - 2011, MP3, 320 kbps Galfimbul 107988935103 MB 0 0 1345132020

18:47

16-Авг-12

Еще никто не оставлял запись к записи скачать торрент Operation Id - Legs - 2011, . Будь первым!

!Обратная связь