Скачать через торрент музыку Hybrid Ice - No Rules - 1987, бесплатно без регистрации torrent

Если у вас наблюдаются проблемы со скриншотами, переходом по ссылками, скачиванием торрентов - проблемы в блокировщике рекламы AdBlock. #хорошегоДня!


Статистика раздачи
Размер:  335 MB   |    Зарегистрирован:  5 лет 1 месяц   |    .torrent скачан:  17 раз   |   
Раздают:  1  
   
Загрузка...
 
Автор Сообщение

Umakiro

avatar Umakiro


Hybrid Ice / No Rules

Жанр: AOR
Год издания: 1987
Аудиокодек: FLAC (*.flac)
Тип рипа: image+.cue
Битрейт аудио: lossless
Источник (релизер): Собственный рип с оригинального диска
Наличие сканов в содержимом раздачи: да
Треклист:
1. Never Comin' Back 3:47
2. Fallen Angel 4:07
3. Scars on My Heart 3:27
4. Fool Me Twice 3:40
5. Secret Dreams 3:36
6. The Night Is Still Young 3:38
7. I'll Be Waiting 3:38
8. It's Only Love 3:39
9. Poor Little Rich Girl 3:42
10. I Won't Be Far Away 4:05
  
Exact Audio Copy V0.99 prebeta 5 from 4. May 2009

EAC extraction logfile from 18. June 2012, 13:27

Hybrid Ice / No Rules

Used drive : PIONEER DVD-RW DVR-116D Adapter: 3 ID: 1

Read mode : SecureUtilize accurate stream : YesDefeat audio cache : YesMake use of C2 pointers : No

Read offset correction : 96Overread into Lead-In and Lead-Out : NoFill up missing offset samples with silence : YesDelete leading and trailing silent blocks : NoNull samples used in CRC calculations : YesUsed interface : Native Win32 interface for Win NT & 2000

Used output format : User Defined EncoderSelected bitrate : 320 kBit/sQuality : HighAdd ID3 tag : YesCommand line compressor : C:\Archivos de programa\FLAC\flac.exeAdditional command line options : -8 -V -T "artist=%a" -T "title=%t" -T "album=%g" -T "date=%y" -T "tracknumber=%n" -T "genre=%m" %sUse compression offset : 0

TOC of the extracted CD

Track | Start | Length | Start sector | End sector --------------------------------------------------------- 1 | 0:00.00 | 3:51.47 | 0 | 17371 2 | 3:51.47 | 4:10.38 | 17372 | 36159 3 | 8:02.10 | 3:31.71 | 36160 | 52055 4 | 11:34.06 | 3:43.71 | 52056 | 68851 5 | 15:18.02 | 3:40.38 | 68852 | 85389 6 | 18:58.40 | 4:11.28 | 85390 | 104242 7 | 23:09.68 | 3:39.61 | 104243 | 120728 8 | 26:49.54 | 3:41.66 | 120729 | 137369 9 | 30:31.45 | 3:45.43 | 137370 | 154287 10 | 34:17.13 | 4:06.36 | 154288 | 172773

Range status and errors

Selected range

Filename C:\Documents and Settings\Manuel\Escritorio\Hybrid Ice - 1987 - No Rules\Hybrid Ice - No Rules.wav

Peak level 100.0 % Range quality 100.0 % Test CRC 70C87138 Copy CRC 70C87138 Copy OK

No errors occurred

AccurateRip summary

Track 1 cannot be verified as accurate (confidence 1) [0019974C], AccurateRip returned [A89A8CE9]Track 2 cannot be verified as accurate (confidence 1) [DF190B96], AccurateRip returned [AFD7C47A]Track 3 cannot be verified as accurate (confidence 1) [49956C62], AccurateRip returned [85259C8A]Track 4 cannot be verified as accurate (confidence 1) [B76F6B3C], AccurateRip returned [68A445AC]Track 5 cannot be verified as accurate (confidence 1) [3149B3F8], AccurateRip returned [2C588D9C]Track 6 cannot be verified as accurate (confidence 1) [13D5EE18], AccurateRip returned [1D3548C4]Track 7 cannot be verified as accurate (confidence 1) [0A0BF777], AccurateRip returned [2BAE03AB]Track 8 cannot be verified as accurate (confidence 1) [5AFB609A], AccurateRip returned [37FB65FE]Track 9 cannot be verified as accurate (confidence 1) [BD4AD73F], AccurateRip returned [253CEBE7]Track 10 cannot be verified as accurate (confidence 1) [BB20003A], AccurateRip returned [B11DF300]

No tracks could be verified as accurateYou may have a different pressing from the one(s) in the database

End of status report
  
REM GENRE RockREM DATE 1987REM DISCID 7608FF0AREM COMMENT "ExactAudioCopy v0.99pb5"PERFORMER "Hybrid Ice"TITLE "No Rules"FILE "Hybrid Ice - No Rules.flac" WAVE TRACK 01 AUDIO TITLE "Never Comin' Back" PERFORMER "Hybrid Ice" INDEX 01 00:00:00 TRACK 02 AUDIO TITLE "Fallen Angel" PERFORMER "Hybrid Ice" INDEX 00 03:49:47 INDEX 01 03:51:47 TRACK 03 AUDIO TITLE "Scars on My Heart" PERFORMER "Hybrid Ice" INDEX 00 08:00:10 INDEX 01 08:02:10 TRACK 04 AUDIO TITLE "Fool Me Twice" PERFORMER "Hybrid Ice" INDEX 00 11:32:06 INDEX 01 11:34:06 TRACK 05 AUDIO TITLE "Secret Dreams" PERFORMER "Hybrid Ice" INDEX 00 15:16:02 INDEX 01 15:18:02 TRACK 06 AUDIO TITLE "The Night is Still Young" PERFORMER "Hybrid Ice" INDEX 00 18:56:40 INDEX 01 18:58:40 TRACK 07 AUDIO TITLE "I'll Be Wating" PERFORMER "Hybrid Ice" INDEX 00 23:07:68 INDEX 01 23:09:68 TRACK 08 AUDIO TITLE "It's Only Love" PERFORMER "Hybrid Ice" INDEX 00 26:47:54 INDEX 01 26:49:54 TRACK 09 AUDIO TITLE "Poor Little Rich Girl" PERFORMER "Hybrid Ice" INDEX 00 30:29:45 INDEX 01 30:31:45 TRACK 10 AUDIO TITLE "I Won't Be Far Away" PERFORMER "Hybrid Ice" INDEX 00 34:15:13 INDEX 01 34:17:13
  
AUDIOCHECKER v2.0 beta (build 457) - by Dester - <a href="mailto:opdester@freemail.hu" class="postLink">opdester@freemail.hu</a>~~~~~~~~~~~~~~~~~~~~~~~~~~~~~~~~~~-=== DO NOT EDIT THIS FILE! ===-

Path: ...\Hybrid Ice - 1987 - No Rules

1 -=- Hybrid Ice - No Rules.flac -=- CDDA (100%)

234908756
Chris Alburger lead and backing vocals, rhythm guitar
Robert Scott lead and backing vocals, keyboards
Galen Toye Folke laed and rhythm guitars, lead and backing vocals
Jeff Willoughby bass, backing vocals
Rick Klinger drums, backing vocals


Трекер:  [ 19-Июн-2012 14:38 ]

  

Скачать .torrent

Размер .torrent файла 14 KB


Размер: 335 MB
Хэш (hash) релиза: 20fc212448a29bd49b68629d26118c846876afe9

Еще никто не оставлял запись к записи скачать торрент Hybrid Ice - No Rules - 1987, . Будь первым!

!Обратная связь