Скачать через торрент музыку Rush - Hold Your Fire бесплатно без регистрации torrent

Если у вас наблюдаются проблемы со скриншотами, переходом по ссылками, скачиванием торрентов - проблемы в блокировщике рекламы AdBlock. #хорошегоДня!


Статистика раздачи
Размер:  339 MB   |    Зарегистрирован:  5 лет 5 месяцев   |    .torrent скачан:  25 раз   |   
Раздают:  1  
   
Загрузка...
 
Автор Сообщение

Umakiro

avatar Umakiro


Rush - Hold Your Fire
Жанр/Стиль: Progressive Rock/Heavy Prog
Страна-производитель диска: Japan
Год издания диска: 2009
Издатель (лейбл): Anthem
Номер по каталогу: WPCR-13483
Страна: Canada
Аудиокодек: FLAC (*.flac)
Тип рипа: tracks+.cue
Битрейт аудио: lossless
Продолжительность: 00:50:31
Источник (релизер): ruskaval
Наличие сканов в содержимом раздачи: да

Треклист:
01. Force Ten (04:33)
02. Time Stand Still (05:08)
03. Open Secrets (05:38)
04. Second Nature (04:36)
05. Prime Mover (05:21)
06. Lock and Key (05:09)
07. Mission (05:17)
08. Turn The Page (04:55)
09. Tai Shan (04:16)
10. High Water (05:34)
  
Exact Audio Copy V0.99 prebeta 5 from 4. May 2009

EAC extraction logfile from 6. March 2011, 8:33

Rush / Hold Your Fire

Used drive : TSSTcorpCD/DVDW TS-H552L Adapter: 2 ID: 0

Read mode : SecureUtilize accurate stream : YesDefeat audio cache : YesMake use of C2 pointers : No

Read offset correction : 6Overread into Lead-In and Lead-Out : NoFill up missing offset samples with silence : YesDelete leading and trailing silent blocks : NoNull samples used in CRC calculations : YesUsed interface : Installed external ASPI interfaceGap handling : Appended to previous track

Used output format : User Defined EncoderSelected bitrate : 1024 kBit/sQuality : HighAdd ID3 tag : NoCommand line compressor : C:\Program Files\FLAC\flac.exeAdditional command line options : -5 -V -T "ARTIST=%a" -T "TITLE=%t" -T "ALBUM=%g" -T "DATE=%y" -T "TRACKNUMBER=%n" -T "TOTALTRACKS=%x" -T "GENRE=%m" -T "ALBUMARTIST=%v" -T "ALBUM ARTIST=%v" -T "COMMENT=EAC Secure Mode, Test & Copy, AccurateRip, FLAC -5" %s

TOC of the extracted CD

Track | Start | Length | Start sector | End sector --------------------------------------------------------- 1 | 0:00.00 | 4:33.23 | 0 | 20497 2 | 4:33.23 | 5:08.65 | 20498 | 43662 3 | 9:42.13 | 5:38.30 | 43663 | 69042 4 | 15:20.43 | 4:36.27 | 69043 | 89769 5 | 19:56.70 | 5:21.05 | 89770 | 113849 6 | 25:18.00 | 5:09.50 | 113850 | 137074 7 | 30:27.50 | 5:17.43 | 137075 | 160892 8 | 35:45.18 | 4:55.20 | 160893 | 183037 9 | 40:40.38 | 4:16.65 | 183038 | 202302 10 | 44:57.28 | 5:34.47 | 202303 | 227399

Track 1

Filename D:\EAC\Rush - Hold Your Fire (1987) [SHM-CD] {2009 Japan Mini LP Edition, WPCR-13483}\01 - Force Ten.wav

Pre-gap length 0:00:02.00

Peak level 99.9 % Track quality 100.0 % Test CRC EBA09FF3 Copy CRC EBA09FF3 Accurately ripped (confidence 7) [24F9142A] Copy OK

Track 2

Filename D:\EAC\Rush - Hold Your Fire (1987) [SHM-CD] {2009 Japan Mini LP Edition, WPCR-13483}\02 - Time Stand Still.wav

Peak level 100.0 % Track quality 100.0 % Test CRC 08716A4B Copy CRC 08716A4B Accurately ripped (confidence 7) [1A13E063] Copy OK

Track 3

Filename D:\EAC\Rush - Hold Your Fire (1987) [SHM-CD] {2009 Japan Mini LP Edition, WPCR-13483}\03 - Open Secrets.wav

Peak level 100.0 % Track quality 100.0 % Test CRC 88D36BAE Copy CRC 88D36BAE Accurately ripped (confidence 7) [BFE37CB6] Copy OK

Track 4

Filename D:\EAC\Rush - Hold Your Fire (1987) [SHM-CD] {2009 Japan Mini LP Edition, WPCR-13483}\04 - Second Nature.wav

Peak level 100.0 % Track quality 100.0 % Test CRC FE83830A Copy CRC FE83830A Accurately ripped (confidence 7) [8891A619] Copy OK

Track 5

Filename D:\EAC\Rush - Hold Your Fire (1987) [SHM-CD] {2009 Japan Mini LP Edition, WPCR-13483}\05 - Prime Mover.wav

Peak level 100.0 % Track quality 100.0 % Test CRC 73F375EF Copy CRC 73F375EF Accurately ripped (confidence 7) [57E600BC] Copy OK

Track 6

Filename D:\EAC\Rush - Hold Your Fire (1987) [SHM-CD] {2009 Japan Mini LP Edition, WPCR-13483}\06 - Lock and Key.wav

Pre-gap length 0:00:01.20

Peak level 100.0 % Track quality 100.0 % Test CRC 3206887D Copy CRC 3206887D Accurately ripped (confidence 7) [AA8D9F6A] Copy OK

Track 7

Filename D:\EAC\Rush - Hold Your Fire (1987) [SHM-CD] {2009 Japan Mini LP Edition, WPCR-13483}\07 - Mission.wav

Peak level 100.0 % Track quality 100.0 % Test CRC 996E0025 Copy CRC 996E0025 Accurately ripped (confidence 7) [776A716E] Copy OK

Track 8

Filename D:\EAC\Rush - Hold Your Fire (1987) [SHM-CD] {2009 Japan Mini LP Edition, WPCR-13483}\08 - Turn The Page.wav

Peak level 100.0 % Track quality 100.0 % Test CRC 1357B208 Copy CRC 1357B208 Accurately ripped (confidence 7) [8C563970] Copy OK

Track 9

Filename D:\EAC\Rush - Hold Your Fire (1987) [SHM-CD] {2009 Japan Mini LP Edition, WPCR-13483}\09 - Tai Shan.wav

Peak level 89.3 % Track quality 100.0 % Test CRC CA410BEC Copy CRC CA410BEC Accurately ripped (confidence 7) [660B0BB5] Copy OK

Track 10

Filename D:\EAC\Rush - Hold Your Fire (1987) [SHM-CD] {2009 Japan Mini LP Edition, WPCR-13483}\10 - High Water.wav

Peak level 100.0 % Track quality 100.0 % Test CRC 2D49117C Copy CRC 2D49117C Accurately ripped (confidence 7) [89630CBA] Copy OK

All tracks accurately ripped

No errors occurred

End of status report
  
REM GENRE RockREM DATE 1987REM DISCID 910BD80AREM COMMENT "ExactAudioCopy v0.99pb5"PERFORMER "Rush"TITLE "Hold Your Fire"FILE "01 - Force Ten.wav" WAVE TRACK 01 AUDIO TITLE "Force Ten" PERFORMER "Rush" INDEX 01 00:00:00FILE "02 - Time Stand Still.wav" WAVE TRACK 02 AUDIO TITLE "Time Stand Still" PERFORMER "Rush" INDEX 01 00:00:00FILE "03 - Open Secrets.wav" WAVE TRACK 03 AUDIO TITLE "Open Secrets" PERFORMER "Rush" INDEX 01 00:00:00FILE "04 - Second Nature.wav" WAVE TRACK 04 AUDIO TITLE "Second Nature" PERFORMER "Rush" INDEX 01 00:00:00FILE "05 - Prime Mover.wav" WAVE TRACK 05 AUDIO TITLE "Prime Mover" PERFORMER "Rush" INDEX 01 00:00:00 TRACK 06 AUDIO TITLE "Lock and Key" PERFORMER "Rush" INDEX 00 05:19:65FILE "06 - Lock and Key.wav" WAVE INDEX 01 00:00:00FILE "07 - Mission.wav" WAVE TRACK 07 AUDIO TITLE "Mission" PERFORMER "Rush" INDEX 01 00:00:00FILE "08 - Turn The Page.wav" WAVE TRACK 08 AUDIO TITLE "Turn The Page" PERFORMER "Rush" INDEX 01 00:00:00FILE "09 - Tai Shan.wav" WAVE TRACK 09 AUDIO TITLE "Tai Shan" PERFORMER "Rush" INDEX 01 00:00:00FILE "10 - High Water.wav" WAVE TRACK 10 AUDIO TITLE "High Water" PERFORMER "Rush" INDEX 01 00:00:00
  
---------------------------------------------------------Filename : 02 - Time Stand Still.flac (32.64mb)Source : CDDA (probability 100%)Detect Mode : 8Date : 17.09.2011 08-35-08--------------------------------------------------------------------------------------------------------------Filename : 03 - Open Secrets.flac (36.04mb)Source : CDDA (probability 100%)Detect Mode : 8Date : 17.09.2011 08-35-08-----------------------------------------------------------------------------------------------------------Filename : 04 - Second Nature.flac (27.52mb)Source : CDDA (probability 100%)Detect Mode : 8Date : 17.09.2011 08-35-08----------------------------------------------------------------------------------------------------------Filename : 05 - Prime Mover.flac (34.00mb)Source : CDDA (probability 100%)Detect Mode : 8Date : 17.09.2011 08-35-08---------------------------------------------------------------------------------------------------------Filename : 06 - Lock and Key.flac (33.70mb)Source : CDDA (probability 100%)Detect Mode : 8Date : 17.09.2011 08-35-08-----------------------------------------------------------------------------------------------------Filename : 07 - Mission.flac (33.27mb)Source : CDDA (probability 100%)Detect Mode : 8Date : 17.09.2011 08-35-08------------------------------------------------------------------------------------------------------Filename : 08 - Turn The Page.flac (31.94mb)Source : CDDA (probability 100%)Detect Mode : 8Date : 17.09.2011 08-35-08-------------------------------------------------------------------------------------------------------Filename : 09 - Tai Shan.flac (25.02mb)Source : CDDA (probability 94%)Detect Mode : 8Date : 17.09.2011 08-35-08----------------------------------------------------------------------------------------------------Filename : 10 - High Water.flac (33.15mb)Source : CDDA (probability 100%)Detect Mode : 8Date : 17.09.2011 08-35-08-----------------------------------------------------------------------------------------------------Filename : 01 - Force Ten.flac (28.91mb)Source : CDDA (probability 99%)Detect Mode : 8Date : 17.09.2011 08-35-08--------------------------------------------------File Generated by Ape Batch Check 1.4a (build 29.04.2008)

Monkey's Audio : (c) Matthew T. Ashland; http://www.monkeysaudio.com/auCDtect.exe : (c) Oleg Berngardt; Alexander Djourik; http://www.true-audio.comApe Batch Check : Bete Noire; http://betenoire.narod.ru/


Трекер:  [ 17-Июн-2012 17:31 ]

  

Скачать .torrent

Размер .torrent файла 15 KB


Размер: 339 MB
Хэш (hash) релиза: 99ee9d716d9b2c5b94d79e0de3d9cf7e9183556c

Торренты, похожие на Rush - Hold Your Fire скачать торрент

Форум Название Автор Размер S L Добавлен
Rосk | Mеtаl | Аltеrnаtivе, Рunk, Indереndеnt (losslеss) ·· (Prog-Rock) Rush - Hold Your Fire (832 464-2 Q-1) - 1987, FLAC (image+.cue), lossless Galfimbul 541796059517 MB 0 0 1371306752

17:32

15-Июн-13

Rосk | Mеtаl | Аltеrnаtivе, Рunk, Indереndеnt (losslеss) ·· (Prog rock) Rush - [1978 - Hemispheres] + [1987 - Hold Your Fire], APE (image + .cue), lossless Galfimbul 590558335563 MB 0 0 1297859507

15:31

16-Фев-11

Еще никто не оставлял запись к записи скачать торрент Rush - Hold Your Fire . Будь первым!

!Обратная связь