Скачать через торрент [MULT4PSP]Секрет Н.И.М.Х. Фильм бесплатно в хорошем качестве torrent

Скачивайте на UnionPeer.org фильмы через торрент без регистрации. Новинки кино в хорошем качестве через торрент. На UnionPeer.org можно скачать через торрент фильмы 2014 и 2015 годов. Самые новые фильмы.

Скачать торрент [MULT4PSP]Секрет Н.И.М.Х. бесплатно через .torrent фильм мультфильм сериал

Если у вас наблюдаются проблемы со скриншотами, переходом по ссылками, скачиванием торрентов - проблемы в блокировщике рекламы AdBlock. #хорошегоДня!


Статистика раздачи
Размер:  380 MB   |    Зарегистрирован:  5 лет 1 месяц   |    .torrent скачан:  38 раз   |   
Раздают:  1  
   
Загрузка...
 
Автор Сообщение

Galfimbul

avatar Galfimbul



<div style="margin-left: 2em">Секрет Н.И.М.Х. (Секрет крыс)
«Animation in the grand tradition by a new master, Don Bluth.»</div>
Оригинальное название: The Secret of NIMH
Год выпуска: 1982
Страна: США
Студия: ''Don Bluth Productions / Aurora / Mrs. Brisby Ltd.''
Жанр: фантастика, фэнтези, драма, семейный, мультфильм
Продолжительность: 83 мин (01:22:28)
Перевод: профессиональный, полное дублирование
Режиссер: Дон Блат
Оригинальные голоса: Дерек Джекоби, Элизабет Хартман, Артур Мэлет, Дом ДеЛуис, Гермиона Бадделей, Шеннен Доэрти и др.
Описание: Экранизация популярной детской книжки американского писателя Роберта О’Браенна «Миссис Фрисби и крысы НИМХ» — первая полнометражная работа Дона Блата, много лет проработавшего на компанию Уолта Диснея и, наконец, основавшего собственную анимационную студию.

Миссис Бризби - маленькая мама-мышка, которая отправляется на поиски лекарства для заболевшего сыночка. С заветным пакетиком в лапках она попадает в разнообразные переделки, но ей удается и избежать когтей злого кота Дракона, и живой выбраться от Великого Филина, давшего миссис Бризби драгоценный совет, как спасти дом с мышатами, которому грозит гибель под ножом трактора. И самое главное: она узнает, как погиб ее муж Джонатан, друживший с необыкновенными крысами, которые живут под розовым кустом...
Тех. информация:

Качество: HDRip
Формат: MP4 PSP AVC
Кодек видео: H.264
Кодек аудио: AAC
Видео: 480x272 (16:9), 29.970 fps, AVC, H.264, ~ 512 kbps avg, 0.194 bit/pixel
Аудио: Russian 48 kHz, AAC-LC, 2/0 (L,R) ch, ABR, ~128 kbps

General
Complete name : J:\Ripped_PSP\Секрет Н.И.М.Х (The Secret of NIMH, 1982) HDRip.mp4
Format : MPEG-4
Format profile : Base Media
Codec ID : isom
File size : 380 MiB
Duration : 1h 22mn
Overall bit rate : 644 Kbps
Encoded date : UTC 2010-11-02 20:38:45
Tagged date : UTC 2010-11-02 20:38:45

Video
ID : 1
Format : AVC
Format/Info : Advanced Video Codec
Format profile : <a href="mailto:Main@L3.0" class="postLink">Main@L3.0</a>
Format settings, CABAC : Yes
Format settings, ReFrames : 2 frames
Codec ID : avc1
Codec ID/Info : Advanced Video Coding
Duration : 1h 22mn
Bit rate mode : Variable
Bit rate : 512 Kbps
Maximum bit rate : 2 295 Kbps
Width : 480 pixels
Height : 272 pixels
Display aspect ratio : 16:9
Frame rate mode : Constant
Frame rate : 29.970 fps
Color space : YUV
Chroma subsampling : 4:2:0
Bit depth : 8 bits
Scan type : Progressive
Bits/(Pixel*Frame) : 0.131
Stream size : 301 MiB (79%)
Writing library : x264 core 86 r1442M 781d300
Encoding settings : cabac=1 / ref=2 / deblock=1:0:0 / analyse=0x1:0x131 / me=tesa / subme=10 / psy=1 / psy_rd=1.00:0.00 / mixed_ref=1 / me_range=16 / chroma_me=1 / trellis=2 / 8x8dct=0 / cqm=0 / deadzone=21,11 / fast_pskip=1 / chroma_qp_offset=-2 / threads=2 / sliced_threads=0 / nr=0 / decimate=1 / interlaced=0 / constrained_intra=0 / bframes=3 / b_pyramid=0 / b_adapt=2 / b_bias=0 / direct=3 / wpredb=1 / wpredp=2 / keyint=290 / keyint_min=29 / scenecut=40 / intra_refresh=0 / rc_lookahead=40 / rc=cbr / mbtree=1 / bitrate=512 / ratetol=0.2 / qcomp=0.60 / qpmin=10 / qpmax=51 / qpstep=4 / vbv_maxrate=2000 / vbv_bufsize=2000 / ip_ratio=1.41 / aq=1:1.00 / pulldown=0 / nal_hrd=none
Tagged date : UTC 2010-11-02 20:39:07

Audio
ID : 2
Format : AAC
Format/Info : Advanced Audio Codec
Format version : Version 4
Format profile : LC
Format settings, SBR : No
Codec ID : 40
Duration : 1h 22mn
Bit rate mode : Variable
Bit rate : 129 Kbps
Maximum bit rate : 155 Kbps
Channel(s) : 2 channels
Channel positions : Front: L R
Sampling rate : 48.0 KHz
Stream size : 76.0 MiB (20%)
Encoded date : UTC 2010-11-02 20:39:04
Tagged date : UTC 2010-11-02 20:39:07


Трекер:  [ 21-Июн-2012 22:14 ]

  

Скачать .torrent

Размер .torrent файла 15 KB


Размер: 380 MB
Хэш (hash) релиза: 7cae89a9a891296ac8c1fe81fd133f0496af2757
Подписка на обновления:

Еще никто не оставлял запись к записи скачать торрент [MULT4PSP]Секрет Н.И.М.Х. . Будь первым!

!Обратная связь