Скачать через торрент [MULT4PSP] Приключения Джеки Чана Jackie Chan Adventures Фильм бесплатно в хорошем качестве torrent

Скачивайте на UnionPeer.org фильмы через торрент без регистрации. Новинки кино в хорошем качестве через торрент. На UnionPeer.org можно скачать через торрент фильмы 2014 и 2015 годов. Самые новые фильмы.

Скачать торрент [MULT4PSP] Приключения Джеки Чана Jackie Chan Adventures бесплатно через .torrent фильм мультфильм сериал

Если у вас наблюдаются проблемы со скриншотами, переходом по ссылками, скачиванием торрентов - проблемы в блокировщике рекламы AdBlock. #хорошегоДня!


Статистика раздачи
Размер:  3.49 GB   |    Зарегистрирован:  5 лет 4 месяца   |    .torrent скачан:  90 раз   |   
Раздают:  1  
   
Загрузка...
 
Автор Сообщение

Galfimbul

avatar Galfimbul



Jackie Chan Adventures(Приключения Джеки Чана)The Demon Sorcerers

Оригинальное Название: Jackie Chan Adventures
Год выхода: 2002
Жанр: приключения, фэнтези, комедия, мистика
Перевод: Профессиональный (многоголосый, закадровый)
Продолжительность: ~21 минута серия

Кол-во Сезонов: 1
Кол-во Серий: 39

Режиссер: Дэвид Хартман / David Hartman , Кэлвин Ли / Kalvin Lee , Джей Олива / Jay Oliva



Описание:
Захватывающий мультсериал с участием отважного охотника за древностями Джеки! Образ анимационного персонажа Джеки объединил в себе черты сразу двух известных героев: прославленного археолога Индианы Джонса и всемирно известного актёра – Джеки Чана. Как и его прототип, Джеки Чан путешествует по миру в поисках древностей, многие из которых обнаруживают в себе магические свойства. Кроме того, мультяшный Джеки как две капли воды похож на киноактёра, любимца и детей и взрослых – Джеки Чана. Подобно герою боевиков Джеки Чану, рисованный Джеки виртуозно владеет восточными единоборствами, он стремительный, неуловимый, он борется со злом во всех его проявлениях. В мультсериале «Приключения Джеки Чана» Джеки предстоит выполнить несколько ответственных заданий. Самое важное получено им от сверхсекретного правительственного отдела №13. Джеки должен отыскать все 12 волшебных талисманов, каждый из которых связан с магическим животным и обладает определённой силой. При этом нельзя забывать, что за этими талисманами охотятся агенты зловещего криминального синдиката «Рука тьмы», возглавляемого злодеем Вальмонтом и вдохновляемого коварным демоном Шенду. Однако еще более трудным заданием для Джеки окажется необходимость заботиться о своей маленькой и непоседливой племяннице Джейд, только что приехавшей из Гонконга. Джейд повсюду суёт свой любопытный носик, и часто мешает Джеки в выполнении секретных операций. Помогать Джеки в экспедициях будут пожилой владелец лавки древностей, которого Джеки называет дядюшкой, и великан Тору. Джеки, Джейд, Тору, и старого дядюшку ждут удивительные приключения! Отправтесь вместе с ними на поиски волшебных талисманов! И это еще не всё: у вас есть отличная возможность узнать больше о Джеки Чане! В конце каждой серии реальный Джеки Чан появляется, чтобы ответить на интересные вопросы детей!



(1) Through the Rabbit Hole / Дыра во времени
(2) The Warrior Incarnate/ Оживший воин
(3) Snake Hunt / Змеиная охота
(4) Mother of All Battles / Воинственная мамаша
(5) The Stronger Evil / Более сильное зло
(6) The J Team (2) / Команда "Джей"
(7) Jade Times Jade / Порталы демонов
(8) The Curse of El Chupacabra / Заклятие Чупакабры
(9) Rumble in the Big House / Тюрьма Хололэндс
(10) Lost City of the Muntabs / Затерянный город Мантубов
(11) And He Does His Own Stunts / Джеки Чан делает свои трюки сам
(12) Showdown in the Old West / Город – призрак на Старом Западе
(13) Queen of the Shadowkhan / Королева теней
(14) Origami / Оригами
(15) Shanghai Moon / Шанхайская Луна
(16) The Lotus Temple / Храм Лотоса
(17) Armor of the Gods / Доспехи восьми бессмертных
(18) Agent Tag / Агент Тагарт
(19) Demon in Di-Skies / Небесный Демон
(20) The Return of the Pussycat / Возвращение котёнка
(21) Scouts Honor / Глаз Авроры
(22) Danger in the Deep Freeze / Замороженый
(23) Into the Mouth of Evil / Сутры Ратта-Джибы
(24) The King and Jade / Король и Джейд
(25) The New Atlantis / Новая Атлантида
(26) The Eighth Door / Восьмая дверь
(27) Demon World (1) / Мир Демонов
(28) Demon World (2) / Мир Демонов 2
(29) Enter the Cat / Превращение в кошку
(30) Pleasure Cruise / Необыкновенное морское путешествие
(31) Tough Luck / Ирландское проклятие
(32) The Chosen One / Избранный
(33) Glove Story / История с перчатками
(34) The Chan Who Knew Too Much / Загадка Стоунхэнджа
(35) Chi of the Vampire / Энергия вампира
(36) The Good, the Bad, the Blind, the Deaf and the Mute / Гора трёх обезьян
(37) Shrink Rap / Браслеты Шивы
(38) I'll Be a Monkey's Puppet / Король обезьян
(39) The Amazing T-Girl! / Супер-талисман1. The Dark Hand / Рука тьмы


Качество: SATRip
Формат: MP4
Видео кодек: AVC
Аудио кодек: AAC
Видео: 408x272 25fps 512kbps
Аудио: AAC 48000Hz stereo 129Kbps

General
Complete name : E:\Video4PSP\Приключения Джеки Чана\The Demon Sorcerers(2)\S02E01.mp4
Format : MPEG-4
Format profile : Base Media
Codec ID : isom
File size : 91.3 MiB
Duration : 19mn 48s
Overall bit rate : 645 Kbps
Encoded date : UTC 2010-04-17 08:12:58
Tagged date : UTC 2010-04-17 08:12:58

Video
ID : 1
Format : AVC
Format/Info : Advanced Video Codec
Format profile : <a href="mailto:Main@L3.0" class="postLink">Main@L3.0</a>
Format settings, CABAC : Yes
Format settings, ReFrames : 3 frames
Codec ID : avc1
Codec ID/Info : Advanced Video Coding
Duration : 19mn 47s
Bit rate mode : Variable
Bit rate : 512 Kbps
Maximum bit rate : 1 721 Kbps
Width : 480 pixels
Height : 272 pixels
Display aspect ratio : 16:9
Frame rate mode : Constant
Frame rate : 25.000 fps
Resolution : 8 bits
Colorimetry : 4:2:0
Scan type : Progressive
Bits/(Pixel*Frame) : 0.157
Stream size : 72.5 MiB (79%)
Writing library : x264 core 56 svn-667M
Encoding settings : cabac=1 / ref=2 / deblock=1:0:0 / analyse=0x1:0x131 / me=umh / subme=6 / brdo=1 / mixed_ref=1 / me_range=16 / chroma_me=1 / trellis=1 / 8x8dct=0 / cqm=0 / deadzone=21,11 / chroma_qp_offset=0 / threads=2 / nr=0 / decimate=1 / mbaff=0 / bframes=3 / b_pyramid=0 / b_adapt=1 / b_bias=0 / direct=3 / wpredb=1 / bime=1 / keyint=250 / keyint_min=25 / scenecut=40(pre) / rc=2pass / bitrate=512 / ratetol=1.0 / rceq='blurCplx^(1-qComp)' / qcomp=0.60 / qpmin=10 / qpmax=51 / qpstep=4 / cplxblur=20.0 / qblur=0.5 / ip_ratio=1.40 / pb_ratio=1.30
Encoded date : UTC 2010-04-17 08:12:58
Tagged date : UTC 2010-04-17 08:13:07

Audio
ID : 2
Format : AAC
Format/Info : Advanced Audio Codec
Format version : Version 4
Format profile : LC
Format settings, SBR : No
Codec ID : 40
Duration : 19mn 48s
Bit rate mode : Variable
Bit rate : 129 Kbps
Maximum bit rate : 143 Kbps
Channel(s) : 2 channels
Channel positions : L R
Sampling rate : 48.0 KHz
Stream size : 18.3 MiB (20%)
Encoded date : UTC 2010-04-17 08:13:06
Tagged date : UTC 2010-04-17 08:13:07




Трекер:  [ 21-Июн-2012 22:16 ]

  

Скачать .torrent

Размер .torrent файла 19 KB


Размер: 3.49 GB
Хэш (hash) релиза: 482114d847b46920b87ae52c35ee277dab1ed05b
Подписка на обновления:

Еще никто не оставлял запись к записи скачать торрент [MULT4PSP] Приключения Джеки Чана Jackie Chan Adventures . Будь первым!

!Обратная связь