Скачать через торрент [MULT4PSP] Тасманский дьявол Taz-Mania Фильм бесплатно в хорошем качестве torrent

Скачивайте на UnionPeer.org фильмы через торрент без регистрации. Новинки кино в хорошем качестве через торрент. На UnionPeer.org можно скачать через торрент фильмы 2014 и 2015 годов. Самые новые фильмы.

Скачать торрент [MULT4PSP] Тасманский дьявол Taz-Mania бесплатно через .torrent фильм мультфильм сериал

Если у вас наблюдаются проблемы со скриншотами, переходом по ссылками, скачиванием торрентов - проблемы в блокировщике рекламы AdBlock. #хорошегоДня!


Статистика раздачи
Размер:  5.95 GB   |    Зарегистрирован:  5 лет 2 месяца   |    .torrent скачан:  26 раз   |   
Раздают:  1  
   
Загрузка...
 
Автор Сообщение

Galfimbul

avatar Galfimbul



Тасманский дьявол
Taz-Mania
Год выпуска: 1991
Страна: США
Студия: ''Warner Bros. Animation''
Жанр: комедия, семейный, мультфильм
Продолжительность: ~ 20 мин. эпизод
Перевод: профессиональный, полное дублирование (Студия "Нота" по заказу СТС)
Режиссер: Кейт Бакстер, Ленорд Робинсон, Гари Хартл
Описание: Популярнейший в Америке мультсериал появится в российском эфире благодаря сотрудничеству ТНТ с ведущей киностудией Голливуда Warner Brothers. Сериал «Таз-мания» производства WB, шел на телеканале Fox с 1991 по 1995 год. Его главный герой, тасманский дьявол по имени Таз – наряду с кроликом Баггзом Банни один из классических персонажей мультиков Looney Tunes.
Таз – самый старший ребенок в семье обычных тасманских дьяволов и самый тупой, по мнению всех его родных. Он подрабатывает в гостинице, чтобы иметь возможность веселиться все оставшееся время. Собирает крышечки от бутылок и журналы комиксов, дружит с собакой динго, шакалом, любознательными крокодилами и птичкой киви, которая еще более тупая, чем он сам.
Тех. информация:
Качество: SATRip
Формат: MPEG 4
Кодек видео: H.264
Кодек аудио: AAC
Видео: 368x272 (1.35:1), 25 fps, H.264 ~512 kbps avg, 0.205 bit/pixel
Аудио: Russian 48 kHz, AAC-LC, 1/0 (C) ch, ABR, ~128 kbps

нумерация согласно сайту ТНТ

01. "История черепашки-щенка"
02. "2 сапога пара"
03. "Война и мир"
04. "Пикник по-тасмански"
05. "Дьявольская работёнка"
06. "Битва с пустынными крысами"
07. "Грустный волк"
08. "Дьявол в фиолетовом платье"
09. "Случай в джунглях"
10. "Сюда Китти,Китти,Китти"
11. "Околдованный Боб"
12. "Мгновенный повтор"
13. "Вендал-щенок"
14. "Безумие от комиксов"
15. "Магазины крушения" / "Пособие по волшебству для Динго"
16. "Дорога в Тасманию"
17. "Просто мальчики хотят повеселиться"
18. "Изумительное уменьшение Таза и компании"
19. "О, братец!"
20. "Тасманский театр"
21. "Большое свидание Джейк"
22. "Внешняя тасманская зона"
23. "Самое смешное тасманское видео"
24. "Сердцеед Таз"
25. "Недотёпа"
26. "Возвращение на дороги Тасмании"
27. "Таз любит Динго"
28. "Тасманский крысолов"
29. "Ни тени сомнения"
30. "Домашний разгром"
31. "Тасманский дьявол - Зверь с птичьими мозгами"
32. "С нами всегда будет Тасмания"
33. "Пища для размышлений"
34. "Вопль в летнюю ночь"
35. "За рулём мистер Таз"
36. "Таз - похититель билетов"
37. "Тасманская колыбельная"
38. "Загипнотизированный"
39. "Киви загнан в угол"
40. "Чудоковатый Вомбат"
41. "Просто овечки"
42. "Пришелец с Марса"
43. "Не полученный знак отличия"
44. "Дилемма с антенной"
45. "Фантазии молодого Таза"
46. "Нет времени для рождества"
47. "Тасмания конфиденциальна"
48. "Не такие уж гладиаторы"
49. "Тварь, которая съела всю страну"
50. "О крысах и Хью"
51a. "Никогда не унывающий Тас"
51b. "Громилла для Була"
52a. "Повторные дубли не включены"
52b. "Ловец взносов"
53a. "Плачь Бушледа"
53b. "Тасманский институт комедии"
54a. "Пособие для начинающих сценаристов"
54b. "Спросите Таса"
55a. "Дежа бу-бу вомбата Вилли"
55b. "Схватить Таса"
56a. "Такова жизнь Таса"
56b. "Ой,Булл"
57a. "Тас в стране Киви"
57b. "Как достать баксы"
57c. "Филосовский момент Таса"
58. "Ещё одна дорога на Тасманию"
59a. "Несчастливая бутылочная пробка"
59b. "Поучительная история"
60. "Дьявольское невезение"
61a. "Тас и яйцо эму"
61b. "Последняя попытка вомбата Вилли"
61c. "К-Тас рекордз представляет"
62a. "Накормить простуду"
62b. "Подручный на день"
63a. "Субота в Тас-Мании"
63b. "Утконосы о кино"
64a. "Динго в сомнении"
64b. "Капитан подводной лодки Тас"
65a. "История происхождения невероятного Тас-Мена"
65b. "Френсис открывает бар"
General
Complete name : J:\Ripped_PSP\Тасманский дьявол\Taz-Mania.e01.TNT.satrip.rus.mp4
Format : MPEG-4
Format profile : Base Media
Codec ID : isom
File size : 91.4 MiB
Duration : 19mn 50s
Overall bit rate : 644 Kbps
Encoded date : UTC 2010-12-03 11:43:05
Tagged date : UTC 2010-12-03 11:43:05

Video
ID : 1
Format : AVC
Format/Info : Advanced Video Codec
Format profile : <a href="mailto:Main@L3.0" class="postLink">Main@L3.0</a>
Format settings, CABAC : Yes
Format settings, ReFrames : 2 frames
Codec ID : avc1
Codec ID/Info : Advanced Video Coding
Duration : 19mn 50s
Bit rate mode : Variable
Bit rate : 512 Kbps
Maximum bit rate : 1 479 Kbps
Width : 368 pixels
Height : 272 pixels
Display aspect ratio : 4:3
Frame rate mode : Constant
Frame rate : 25.000 fps
Color space : YUV
Chroma subsampling : 4:2:0
Bit depth : 8 bits
Scan type : Progressive
Bits/(Pixel*Frame) : 0.205
Stream size : 72.7 MiB (80%)
Writing library : x264 core 65 r999kMod cc51047
Encoding settings : cabac=1 / ref=2 / deblock=1:-2:-1 / analyse=0x1:0x131 / me=umh / subme=7 / psy_rd=1.0:0.0 / mixed_ref=1 / me_range=16 / chroma_me=1 / trellis=2 / 8x8dct=0 / cqm=0 / deadzone=21,11 / chroma_qp_offset=-2 / threads=2 / thread_queue=2 / nr=0 / decimate=0 / mbaff=0 / bframes=3 / b_pyramid=0 / b_adapt=1 / b_bias=0 / direct=3 / wpredb=1 / keyint=250 / keyint_min=25 / scenecut=40(pre) / rc=2pass / bitrate=512 / ratetol=1.0 / qcomp=0.60 / qpmin=10 / qpmax=51 / qpstep=4 / cplxblur=20.0 / qblur=0.5 / ip_ratio=1.40 / pb_ratio=1.30 / aq=1:1.00
Encoded date : UTC 2010-12-03 11:43:05
Tagged date : UTC 2010-12-03 11:43:07

Audio
ID : 2
Format : AAC
Format/Info : Advanced Audio Codec
Format version : Version 4
Format profile : LC
Format settings, SBR : No
Codec ID : 40
Duration : 19mn 50s
Bit rate mode : Variable
Bit rate : 128 Kbps
Maximum bit rate : 138 Kbps
Channel(s) : 1 channel
Channel positions : Front: C
Sampling rate : 48.0 KHz
Stream size : 18.2 MiB (20%)
Encoded date : UTC 2010-12-03 11:43:07
Tagged date : UTC 2010-12-03 11:43:07


Трекер:  [ 21-Июн-2012 21:13 ]

  

Скачать .torrent

Размер .torrent файла 34 KB


Размер: 5.95 GB
Хэш (hash) релиза: a36a1aee937ca784d12344550c04ad11df7ea0a6
Подписка на обновления:

Еще никто не оставлял запись к записи скачать торрент [MULT4PSP] Тасманский дьявол Taz-Mania . Будь первым!

!Обратная связь