Скачать через торрент [MULT4PSP] Супер тюрьма! Superjail! Фильм бесплатно в хорошем качестве torrent

Скачивайте на UnionPeer.org фильмы через торрент без регистрации. Новинки кино в хорошем качестве через торрент. На UnionPeer.org можно скачать через торрент фильмы 2014 и 2015 годов. Самые новые фильмы.

Скачать торрент [MULT4PSP] Супер тюрьма! Superjail! бесплатно через .torrent фильм мультфильм сериал

Если у вас наблюдаются проблемы со скриншотами, переходом по ссылками, скачиванием торрентов - проблемы в блокировщике рекламы AdBlock. #хорошегоДня!


Статистика раздачи
Размер:  513 MB   |    Зарегистрирован:  5 лет 5 месяцев   |    .torrent скачан:  46 раз   |   
Раздают:  1  
   
Загрузка...
 
Автор Сообщение

Galfimbul

avatar Galfimbul


Супер тюрьма!

Оригинальное Название: Superjail!
Год выпуска: 2007
Страна: США
Жанр: авангард, треш, психоделика.
Продолжительность: серия ~11 мин.
Кол-во Сезонов: 1
Кол-во Серий: 10
Перевод: Любительский (одноголосый) СПАМ
Русские субтитры: есть (только песни и надписи)
Режиссер: Кристи Каракас, Стивен Ворбрик, Бен Грубер.
В ролях: Дэвид Вейн, Кристи Каракас, Тедди Кони, Кристофер Маккалоч, Ричард Мазар.
Описание: Действия сериала происходят внутри тюрьмы. Сама "Superjail" (Супер тюрьма) находится внутри вулкана, который в свою очередь расположен в другом, более большом. Изнутри, тюрьма представляет собой собственную реальность, в которой ткань пространства и времени является крайне жидкой субстанцией и изменяется по прихоти начальника тюрьмы, но в целом каждый эпизод начинается с линейной истории и формируется в насильственное психоделическое великолепие.

Каждый эпизод идет по аналогичной схеме. Уголовника Джека Найфа доставляет в "Супер тюрьму" Джэйлбот (тюремный робот). Во время его прибытия, разнообразные события вдохновляют надзирателя осуществить какой нибудь сумашедший план, который обязательно портят близнецы - сотрудники тюрьмы. Сочетание этих двух факторов неизбежно приводит к впечатляющим психоделическим кровопролитиям. Многие заключенные в конечном счете умирают, чаще всего ужасной смертью, в этой неразберихе Джек Найф убегает из тюрьмы, пока в следующем эпизоде не будет пойман снова.
01. Superbar - Супер Бар
02. Combaticus - Комбатикус
03. Ladies Night - Дамская ночь
04. Cold-Blooded - Холодная кровь
05. Don't Be a Negaton - Не будь Негатоном!
06. Terrorarium - Террорариум
07. Mr. Grumpy-Pants - Мистер Угрюмые Штанишки
08. Dream Machine - Машина Сновидений
09. Time Police. Part 1 - Полиция Времени. Часть 1
10. Time Police. Part 2 - Полиция Времени. Часть 2 (финал 1 сезона)

Качество: WEB-DLRip
Формат: MP4
Видео кодек: H.264
Аудио кодек: AAC
Видео: AVC 480x272 24.00fps 512 Kbps
Аудио: AAC LC 44100Hz stereo 128kbps
General
Complete name : D:\torrent\sider\Super Jail mp4\SuperJail!.S01E01.Superbar.WEB-DL. СПАМ
Format : MPEG-4
Format profile : Base Media
Codec ID : isom
File size : 48.3 MiB
Duration : 10mn 29s
Overall bit rate : 644 Kbps
Encoded date : UTC 2010-07-15 06:38:34
Tagged date : UTC 2010-07-15 06:38:34

Video
ID : 1
Format : AVC
Format/Info : Advanced Video Codec
Format profile : <a href="mailto:Main@L3.0" class="postLink">Main@L3.0</a>
Format settings, CABAC : Yes
Format settings, ReFrames : 3 frames
Format settings, GOP : M=4, N=5
Codec ID : avc1
Codec ID/Info : Advanced Video Coding
Duration : 10mn 29s
Bit rate mode : Variable
Bit rate : 512 Kbps
Maximum bit rate : 1 458 Kbps
Width : 480 pixels
Height : 272 pixels
Display aspect ratio : 16:9
Frame rate mode : Constant
Frame rate : 24.000 fps
Color space : YUV
Chroma subsampling : 4:2:0
Bit depth : 8 bits
Scan type : Progressive
Bits/(Pixel*Frame) : 0.163
Stream size : 38.4 MiB (80%)
Writing library : x264 core 56 svn-667M
Encoding settings : cabac=1 / ref=2 / deblock=1:0:0 / analyse=0x1:0x131 / me=umh / subme=6 / brdo=1 / mixed_ref=1 / me_range=16 / chroma_me=1 / trellis=1 / 8x8dct=0 / cqm=0 / deadzone=21,11 / chroma_qp_offset=0 / threads=2 / nr=0 / decimate=1 / mbaff=0 / bframes=3 / b_pyramid=0 / b_adapt=1 / b_bias=0 / direct=3 / wpredb=1 / bime=1 / keyint=250 / keyint_min=25 / scenecut=40(pre) / rc=2pass / bitrate=512 / ratetol=1.0 / rceq='blurCplx^(1-qComp)' / qcomp=0.60 / qpmin=10 / qpmax=51 / qpstep=4 / cplxblur=20.0 / qblur=0.5 / ip_ratio=1.40 / pb_ratio=1.30
Encoded date : UTC 2010-07-15 06:38:34
Tagged date : UTC 2010-07-15 06:38:36

Audio
ID : 2
Format : AAC
Format/Info : Advanced Audio Codec
Format version : Version 4
Format profile : LC
Format settings, SBR : No
Codec ID : 40
Duration : 10mn 29s
Bit rate mode : Variable
Bit rate : 129 Kbps
Maximum bit rate : 146 Kbps
Channel(s) : 2 channels
Channel positions : Front: L R
Sampling rate : 44.1 KHz
Stream size : 9.66 MiB (20%)
Encoded date : UTC 2010-07-15 06:38:35
Tagged date : UTC 2010-07-15 06:38:36


Трекер:  [ 11-Июн-2012 18:38 ]

  

Скачать .torrent

Размер .torrent файла 11 KB


Размер: 513 MB
Хэш (hash) релиза: d48e2e56d0e1523fb00bc6ab1c970c59f8386ae3
Подписка на обновления:

Еще никто не оставлял запись к записи скачать торрент [MULT4PSP] Супер тюрьма! Superjail! . Будь первым!

!Обратная связь