Скачать через торрент [MULT4PSP]Рождественская история A Christmas Carol Фильм бесплатно в хорошем качестве torrent

Скачивайте на UnionPeer.org фильмы через торрент без регистрации. Новинки кино в хорошем качестве через торрент. На UnionPeer.org можно скачать через торрент фильмы 2014 и 2015 годов. Самые новые фильмы.

Скачать торрент [MULT4PSP]Рождественская история A Christmas Carol бесплатно через .torrent фильм мультфильм сериал

Если у вас наблюдаются проблемы со скриншотами, переходом по ссылками, скачиванием торрентов - проблемы в блокировщике рекламы AdBlock. #хорошегоДня!


Статистика раздачи
Размер:  361 MB   |    Зарегистрирован:  5 лет 4 месяца   |    .torrent скачан:  48 раз   |   
Раздают:  1  
   
Загрузка...
 
Автор Сообщение

Galfimbul

avatar Galfimbul


A Christmas Carol(Рождественская история)


Оригинальное Название: A Christmas Carol
Год выпуска: 2009
Страна: США
Жанр: фэнтези, драма, семейный, мультфильм
Продолжительность: 01:35:11
Перевод: Профессиональный (Полное дублирование)

Режиссер: Роберт Земекис

В главных ролях: Джим Керри, Стив Валентайн, Дэрил Сабара, Сэйдж Райан, Райан Очоа, Бобби Пейдж, Рон Боттитта, Сэмми Ханратти, Джулиан Холлоуэй, Гари Олдман

Описание: Это викторианская поучительная история о старом и ожесточившемся скупердяе Эбенезере Скрудже, который в течение одной ночи переживает испытание глубокого очищения. Мистер Скрудж - финансист/денежный меняла, который посвятил всю свою жизнь накоплению богатства. Он презирает всё, кроме денег, включая дружбу, любовь и рождественские праздники.

Качество: DVDRip
Формат: MP4
Видео кодек: AVC
Аудио кодек: AAC
Видео: MPEG4 Video (H264) 480x208 23.98fps 334Kbps
Аудио: AAC 48000Hz stereo 192Kbps

General
Complete name : D:\Rojdestvenskaya.istoria.2009.D.DVDRip.mp4
Format : MPEG-4
Format profile : Base Media
Codec ID : isom
File size : 361 MiB
Duration : 1h 35mn
Overall bit rate : 530 Kbps
Encoded date : UTC 2010-03-22 10:03:53
Tagged date : UTC 2010-03-22 10:03:53

Video
ID : 1
Format : AVC
Format/Info : Advanced Video Codec
Format profile : <a href="mailto:Main@L3.0" class="postLink">Main@L3.0</a>
Format settings, CABAC : Yes
Format settings, ReFrames : 3 frames
Codec ID : avc1
Codec ID/Info : Advanced Video Coding
Duration : 1h 35mn
Bit rate mode : Variable
Bit rate : 334 Kbps
Maximum bit rate : 1 804 Kbps
Width : 480 pixels
Height : 208 pixels
Display aspect ratio : 2.35:1
Frame rate mode : Constant
Frame rate : 23.976 fps
Resolution : 8 bits
Colorimetry : 4:2:0
Scan type : Progressive
Bits/(Pixel*Frame) : 0.140
Stream size : 228 MiB (63%)
Title : Imported with GPAC 0.4.6-DEV (build 1)
Writing library : x264 core 79 r1342kMod e8501ef
Encoding settings : cabac=1 / ref=3 / deblock=1:-1:0 / analyse=0x1:0x131 / me=umh / subme=7 / psy=1 / psy_rd=1.0:0.2 / mixed_ref=1 / me_range=16 / chroma_me=1 / trellis=2 / 8x8dct=0 / cqm=0 / deadzone=21,11 / chroma_qp_offset=-3 / threads=3 / nr=0 / decimate=1 / mbaff=0 / constrained_intra=0 / bframes=3 / b_pyramid=0 / b_adapt=2 / b_bias=0 / direct=3 / wpredb=1 / wpredp=2 / keyint=250 / keyint_min=25 / scenecut=40 / rc_lookahead=60 / rc=crf / mbtree=1 / crf=21.0000 / qcomp=0.60 / qpmin=10 / qpmax=51 / qpstep=4 / ip_ratio=1.40 / aq=1:1.00
Encoded date : UTC 2010-03-22 10:03:53
Tagged date : UTC 2010-03-22 10:04:36

Audio
ID : 2
Format : AAC
Format/Info : Advanced Audio Codec
Format version : Version 4
Format profile : LC
Format settings, SBR : No
Codec ID : 40
Duration : 1h 35mn
Bit rate mode : Variable
Bit rate : 192 Kbps
Maximum bit rate : 249 Kbps
Channel(s) : 2 channels
Channel positions : L R
Sampling rate : 48.0 KHz
Stream size : 131 MiB (36%)
Encoded date : UTC 2010-03-22 10:04:30
Tagged date : UTC 2010-03-22 10:04:36




Трекер:  [ 09-Июн-2012 16:05 ]

  

Скачать .torrent

Размер .torrent файла 14 KB


Размер: 361 MB
Хэш (hash) релиза: b67a0272f4cae5556d51cbb1ff4c22a1db4e15f9
Подписка на обновления:

Еще никто не оставлял запись к записи скачать торрент [MULT4PSP]Рождественская история A Christmas Carol . Будь первым!

!Обратная связь