Скачать через торрент Как приручить медведя Den kæmpestore bjørn Фильм бесплатно в хорошем качестве torrent

Скачивайте на UnionPeer.org фильмы через торрент без регистрации. Новинки кино в хорошем качестве через торрент. На UnionPeer.org можно скачать через торрент фильмы 2014 и 2015 годов. Самые новые фильмы.

Скачать торрент Как приручить медведя Den kæmpestore bjørn бесплатно через .torrent фильм мультфильм сериал

Если у вас наблюдаются проблемы со скриншотами, переходом по ссылками, скачиванием торрентов - проблемы в блокировщике рекламы AdBlock. #хорошегоДня!


Статистика раздачи
Размер:  337 MB   |    Зарегистрирован:  5 лет 2 месяца   |    .torrent скачан:  39 раз   |   
Раздают:  1  
   
Загрузка...
 
Автор Сообщение

Galfimbul

avatar Galfimbul


Как приручить медведяDen kæmpestore bjørn / The Great Bear
Оригинальное название: Den kæmpestore bjørn / The Great Bear
Год выпуска: 2011 г.
Страна: Дания
Жанр: мультфильм, приключения, фэнтези
Продолжительность: 01:13:35
Перевод:

Профессиональный (многоголосый, закадровый)

Cубтитры: нет
Режиссер: Эсбен Тофт Якобсен / Esben Toft Jacobsen

Роли озвучивали: Маркус Рюгорд, Alberte Blichfeldt, Флемминг Квист Мюллер, Elith Nulle Nykjær
Описание: Джонатану 11 лет. Каждые летние каникулы он проводит у дедушки, который живет на краю дремучего леса. В этом году компанию ему составит младшая сестра София. За этой непоседой так сложно уследить! Но однажды сестренку похищает гигантский 1000-летний медведь. Джонатан отправляется в самое сердце леса, и хотя у него самого душа уходит в пятки, мальчик намерен вырвать Софию из медвежьих лап. А может быть в зеленой чаще есть кто-то пострашнее косолапого великана?
Качество видео: DVDRip
Формат: MP4
Видео кодек: H.264
Аудио кодек: AAC
Видео: 480x272 (16x9), 25.000 fps, x264 ~512 kbps avg, 0.157 bit/pixel
Аудио: AAC-LC VBR 2 channels, 48.0 KHz ~128 Kbps
General
Complete name : D:\Фильмы\PSP\Мультики\Great bear (2011)\Great Bear (2011).mp4
Format : MPEG-4
Format profile : Base Media
Codec ID : isom
File size : 337 MiB
Duration : 1h 13mn
Overall bit rate mode : Variable
Overall bit rate : 644 Kbps
Encoded date : UTC 2012-04-29 11:33:16
Tagged date : UTC 2012-04-29 11:33:16
Writing application : Yamb 2.1.0.0

Video
ID : 1
Format : AVC
Format/Info : Advanced Video Codec
Format profile : <a href="mailto:Main@L3.0" class="postLink">Main@L3.0</a>
Format settings, CABAC : Yes
Format settings, ReFrames : 3 frames
Codec ID : avc1
Codec ID/Info : Advanced Video Coding
Duration : 1h 13mn
Bit rate : 512 Kbps
Maximum bit rate : 2 557 Kbps
Width : 480 pixels
Height : 272 pixels
Display aspect ratio : 16:9
Frame rate mode : Constant
Frame rate : 25.000 fps
Color space : YUV
Chroma subsampling : 4:2:0
Bit depth : 8 bits
Scan type : Progressive
Bits/(Pixel*Frame) : 0.157
Stream size : 268 MiB (80%)
Writing library : x264 core 120 r2164 da19765
Encoding settings : cabac=1 / ref=3 / deblock=0:0:0 / analyse=0x1:0x131 / me=umh / subme=9 / psy=1 / psy_rd=1.00:0.00 / mixed_ref=1 / me_range=16 / chroma_me=1 / trellis=2 / 8x8dct=0 / cqm=0 / deadzone=21,11 / fast_pskip=0 / chroma_qp_offset=-2 / threads=1 / sliced_threads=0 / nr=0 / decimate=0 / interlaced=0 / bluray_compat=0 / constrained_intra=0 / bframes=3 / b_pyramid=0 / b_adapt=2 / b_bias=0 / direct=3 / weightb=1 / open_gop=0 / weightp=1 / keyint=250 / keyint_min=25 / scenecut=40 / intra_refresh=0 / rc=2pass / mbtree=0 / bitrate=512 / ratetol=1.0 / qcomp=0.60 / qpmin=0 / qpmax=69 / qpstep=4 / cplxblur=20.0 / qblur=0.5 / ip_ratio=1.40 / pb_ratio=1.30 / aq=1:1.00
Encoded date : UTC 2012-04-29 07:40:33
Tagged date : UTC 2012-04-29 11:34:19

Audio
ID : 2
Format : AAC
Format/Info : Advanced Audio Codec
Format profile : LC
Codec ID : 40
Duration : 1h 13mn
Bit rate mode : Variable
Bit rate : 128 Kbps
Maximum bit rate : 168 Kbps
Channel(s) : 2 channels
Channel positions : Front: L R
Sampling rate : 48.0 KHz
Compression mode : Lossy
Stream size : 67.1 MiB (20%)
Encoded date : UTC 2012-04-29 11:34:14
Tagged date : UTC 2012-04-29 11:34:19
x264.exe: --pass 2 --bitrate 512 --preset medium --level 3.0 --no-deblock --direct auto --b-adapt 2 --b-pyramid none --weightp 1 --trellis 2 --no-fast-pskip --no-dct-decimate --partitions p8x8,b8x8,i4x4,p4x4 --no-8x8dct --subme 9 --me umh --no-mbtree --stats "D:\Temp\0061.log" --sar 1:1 --output "D:\Temp\0061.264" "D:\Temp\0061.avs"

avs [info]: 480x272p 1:1 @ 25/1 fps (cfr)
x264 [info]: using SAR=1/1
x264 [info]: using cpu capabilities: MMX2 SSE2Slow SlowCTZ
x264 [info]: profile Main, level 3.0

x264 [info]: frame I:1197 Avg QP:15.30 size: 27971
x264 [info]: frame P:51549 Avg QP:17.44 size: 3624
x264 [info]: frame B:57140 Avg QP:20.28 size: 1068
x264 [info]: consecutive B-frames: 12.9% 42.7% 31.6% 12.8%
x264 [info]: mb I I16..4: 8.8% 0.0% 91.2%
x264 [info]: mb P I16..4: 0.5% 0.0% 2.6% P16..4: 53.6% 9.9% 12.3% 1.6% 0.7% skip:18.9%
x264 [info]: mb B I16..4: 0.1% 0.0% 0.5% B16..8: 25.6% 5.7% 2.2% direct: 3.0% skip:63.0% L0:28.4% L1:56.4% BI:15.2%
x264 [info]: direct mvs spatial:83.8% temporal:16.2%
x264 [info]: coded y,uvDC,uvAC intra: 91.5% 85.8% 65.5% inter: 23.7% 19.9% 9.8%
x264 [info]: i16 v,h,dc,p: 27% 19% 9% 46%
x264 [info]: i4 v,h,dc,ddl,ddr,vr,hd,vl,hu: 14% 7% 5% 9% 13% 11% 13% 12% 16%
x264 [info]: i8c dc,h,v,p: 43% 24% 18% 15%
x264 [info]: Weighted P-Frames: Y:3.3% UV:1.8%
x264 [info]: ref P L0: 86.1% 8.0% 5.9%
x264 [info]: ref B L0: 83.3% 16.7%
x264 [info]: kb/s:512.02

x264 [total]: encoded 109886 frames, 9.36 fps, 512.02 kb/s


Трекер:  [ 09-Июн-2012 16:05 ]

  

Скачать .torrent

Размер .torrent файла 13 KB


Размер: 337 MB
Хэш (hash) релиза: 6dd38b61bce67cd3ab55242b447d5ec475c437eb
Подписка на обновления:

Торренты, похожие на Как приручить медведя Den kæmpestore bjørn скачать торрент

Форум Название Автор Размер S L Добавлен
Мультфильмы до 2016 ·· Как приручить медведя / Den kæmpestore bjørn / The Great Bear (Эсбен Тофт Якобсен / Esben Toft Jacobsen) [2011, Комедия, Приключения, DVB] Dub Galfimbul 20692357121.93 GB 0 0 1375756637

05:37

6-Авг-13

Мультфильмы до 2016 ·· Как приручить медведя / Den kæmpestore bjørn / The Great Bear (Эсбен Тофт Якобсен / Esben Toft Jacobsen) [2011, фэнтези, приключения, семейный, DVDRip] Dub (СТС) + Original Dan Galfimbul 15655464961.46 GB 0 0 1375756619

05:36

6-Авг-13

Мультфильмы до 2016 ·· Как приручить медведя / Den kæmpestore bjørn / The Great Bear (Эсбен Тофт Якобсен / Esben Toft Jacobsen) [2011, мультфильм, фэнтези, драма, приключения, семейный, DVDRip-AVC] MVO L 16185135641.51 GB 0 0 1309157332

09:48

27-Июн-11

Мультфильмы до 2016 ·· Как приручить медведя / Den kæmpestore bjørn / The Great Bear (Эсбен Тофт Якобсен / Esben Toft Jacobsen) [2011, мультфильм, фэнтези, драма, приключения, семейный, DVDRip] MVO [Лицензия] L 737497088703 MB 0 0 1309157276

09:47

27-Июн-11

Мультфильмы до 2016 ·· Как приручить медведя / Den kæmpestore bjørn / The Great Bear (Эсбен Тофт Якобсен / Esben Toft Jacobsen) [2011, Дания, мультфильм, фэнтези, драма, приключения, семейный, DVD5] R5 MVO original dan [«CP-Digital»] L 46808453124.36 GB 0 0 1309157202

09:46

27-Июн-11

Мультфильмы до 2016 ·· Как приручить медведя / Den kæmpestore bjørn / The Great Bear (Эсбен Тофт Якобсен / Esben Toft Jacobsen) [2011, мультфильм, фэнтези, драма, приключения, семейный, DVDRip] MVO [Лицензия] + original Dan L 14648258561.36 GB 0 0 1309157151

09:45

27-Июн-11

Еще никто не оставлял запись к записи скачать торрент Как приручить медведя Den kæmpestore bjørn . Будь первым!

!Обратная связь