Скачать через торрент [MULT4PSP] Зеленый Фонарь: Изумрудные рыцари Green Lantern: Emerald Knights Фильм бесплатно в хорошем качестве torrent

Скачивайте на UnionPeer.org фильмы через торрент без регистрации. Новинки кино в хорошем качестве через торрент. На UnionPeer.org можно скачать через торрент фильмы 2014 и 2015 годов. Самые новые фильмы.

Скачать торрент [MULT4PSP] Зеленый Фонарь: Изумрудные рыцари Green Lantern: Emerald Knights бесплатно через .torrent фильм мультфильм сериал

Если у вас наблюдаются проблемы со скриншотами, переходом по ссылками, скачиванием торрентов - проблемы в блокировщике рекламы AdBlock. #хорошегоДня!


Статистика раздачи
Размер:  385 MB   |    Зарегистрирован:  5 лет 2 месяца   |    .torrent скачан:  35 раз   |   
Раздают:  1  
   
Загрузка...
 
Автор Сообщение

Galfimbul

avatar Galfimbul



Зеленый Фонарь: Изумрудные рыцари
«Witness the Color of Will»
Оригинальное название: Green Lantern: Emerald Knights
Год выпуска: 2011
Страна: США
Студия: ''DC Entertainment / Warner Bros. Animation''
Жанр: мультфильм, фантастика, фэнтези, боевик, приключения
Продолжительность: 84 мин (01:23:40)
Перевод: профессиональный, полное дублирование
Режиссер: Крис Беркли, Лоурен Монтгомери, Джей Олива
Сценарий: Алан Барнетт, Тодд Кэйси
Оригинальные голоса: Натан Филлион, Джейсон Айзекс, Элизабет Мосс, Келли Ху, Арнольд Вослоу, Грэй ДеЛисл
Описание: Этот полнометражный анимационный фильм по Вселенной DC Comics открывает нам богатую мифологию мира Зеленого Фонаря в шести взаимосвязанных эпизодах. Ожидая сражения с Кроной, древним врагом Стражей Вселенной, Зеленые Фонари Земли: Хэл Джордан, Килавог, Синестро и другие бойцы Корпуса Зеленых Фонарей рассказывают новичку-рекруту Арисии о своих былых приключениях — от истории о Первом Фонаре до зловещих событий, которые привели к Самой Черной Ночи Корпуса!
Тех. информация:
Качество: HDRip
Формат: MP4
Кодек видео: x.264
Кодек аудио: AAC
Видео: 480x272 (16:9), 23.976 fps, x.264 ~512 kbps avg, 0.164 bit/pixel
Аудио: Russian 48 kHz, AAC-LC, 2/0 (L,R) ch, ABR, ~128 kbps
General
Complete name : E:\Ripped_PSP\Зеленый фонарь. Изумрудные рыцари (Green Lantern. Emerald Knights, 2011).mp4
Format : MPEG-4
Format profile : Base Media
Codec ID : isom
File size : 385 MiB
Duration : 1h 23mn
Overall bit rate : 644 Kbps
Encoded date : UTC 2011-06-13 05:41:34
Tagged date : UTC 2011-06-13 05:41:34

Video
ID : 1
Format : AVC
Format/Info : Advanced Video Codec
Format profile : <a href="mailto:Main@L3.0" class="postLink">Main@L3.0</a>
Format settings, CABAC : Yes
Format settings, ReFrames : 3 frames
Codec ID : avc1
Codec ID/Info : Advanced Video Coding
Duration : 1h 23mn
Bit rate mode : Variable
Bit rate : 512 Kbps
Maximum bit rate : 3 790 Kbps
Width : 480 pixels
Height : 272 pixels
Display aspect ratio : 16:9
Frame rate mode : Constant
Frame rate : 23.976 fps
Color space : YUV
Chroma subsampling : 4:2:0
Bit depth : 8 bits
Scan type : Progressive
Bits/(Pixel*Frame) : 0.164
Stream size : 306 MiB (80%)
Title : Imported with GPAC 0.4.6-DEV (internal rev. 7)
Writing library : x264 core 108 r1790 8eaf8a6
Encoding settings : cabac=1 / ref=3 / deblock=1:-1:0 / analyse=0x1:0x131 / me=umh / subme=7 / psy=1 / psy_rd=1.00:0.20 / mixed_ref=1 / me_range=16 / chroma_me=1 / trellis=2 / 8x8dct=0 / cqm=0 / deadzone=21,11 / fast_pskip=0 / chroma_qp_offset=-3 / threads=3 / sliced_threads=0 / nr=0 / decimate=0 / interlaced=0 / constrained_intra=0 / bframes=3 / b_pyramid=0 / b_adapt=2 / b_bias=0 / direct=3 / weightb=1 / open_gop=0 / weightp=2 / keyint=250 / keyint_min=23 / scenecut=40 / intra_refresh=0 / rc_lookahead=60 / rc=2pass / mbtree=1 / bitrate=512 / ratetol=1.0 / qcomp=0.60 / qpmin=10 / qpmax=51 / qpstep=4 / cplxblur=20.0 / qblur=0.5 / ip_ratio=1.40 / aq=1:1.00
Encoded date : UTC 2011-06-13 05:41:34
Tagged date : UTC 2011-06-13 05:41:53

Audio
ID : 2
Format : AAC
Format/Info : Advanced Audio Codec
Format profile : LC
Codec ID : 40
Duration : 1h 23mn
Bit rate mode : Variable
Bit rate : 128 Kbps
Maximum bit rate : 199 Kbps
Channel(s) : 2 channels
Channel positions : Front: L R
Sampling rate : 48.0 KHz
Compression mode : Lossy
Stream size : 76.6 MiB (20%)
Encoded date : UTC 2011-06-13 05:41:49
Tagged date : UTC 2011-06-13 05:41:53


Трекер:  [ 09-Июн-2012 16:05 ]

  

Скачать .torrent

Размер .torrent файла 15 KB


Размер: 385 MB
Хэш (hash) релиза: 4e3ae56217bf48e8b40ec03a22f2376b907818b8
Подписка на обновления:

Еще никто не оставлял запись к записи скачать торрент [MULT4PSP] Зеленый Фонарь: Изумрудные рыцари Green Lantern: Emerald Knights . Будь первым!

!Обратная связь