Скачать через торрент [MULT4PSP] Скуби-Ду и Король Гоблинов Scooby-Doo and the Goblin King Фильм бесплатно в хорошем качестве torrent

Скачивайте на UnionPeer.org фильмы через торрент без регистрации. Новинки кино в хорошем качестве через торрент. На UnionPeer.org можно скачать через торрент фильмы 2014 и 2015 годов. Самые новые фильмы.

Скачать торрент [MULT4PSP] Скуби-Ду и Король Гоблинов Scooby-Doo and the Goblin King бесплатно через .torrent фильм мультфильм сериал

Если у вас наблюдаются проблемы со скриншотами, переходом по ссылками, скачиванием торрентов - проблемы в блокировщике рекламы AdBlock. #хорошегоДня!


Статистика раздачи
Размер:  377 MB   |    Зарегистрирован:  5 лет 4 месяца   |    .torrent скачан:  95 раз   |   
Раздают:  1  
   
Загрузка...
 
Автор Сообщение

Galfimbul

avatar Galfimbul




Scooby-Doo and the Goblin King(Скуби-Ду и Король Гоблинов)

Оригинальное Название: Scooby-Doo and the Goblin King
Год Выпуска: 2008
Cтрана: США
Жанр: Мультфильм
Продолжительность: 01:14:14
Перевод: Профессиональный (двухголосый)

Режиссер: Джо Сичта, Кевин Алтиери, Алан Кэлдуэлл, Сандра Фрэйм

В главных ролях: Тим Карры, Хайден Панеттире, Джамес Белучи, Лаурен Бакалл, Вайне Кнайт, Валлак Шавн, Джай Лено, Русси Тайлор, Ларрй Джой Кампбелл, Том Адкокс-Гернандез

Описание:
Какая напасть! Потрясающий Крадски, неудачливый карнавальный волшебник, крадёт магию и Скуби-Ду с Шэгги должны остановить его, иначе все превратятся в жутких монстров Хэллоуина! По железной дороге угрюмого жнеца они отправляются в фантастический мир Хэллоуина, чтобы вернуть скипетр гоблинов, отобрав его у короля гоблинов до полуночи. По пути они сталкиваются с пресловутым всадником без головы, свом помощником – фонарём из тыквы и резвой метлой, которые берут их в путешествие по загробной жизни. Ваш дом будет сотрясаться от волшебных созданий Хэллоуина и странных миров в этой весёлой анимационной сказке!

Качество: DVDRip
Формат: MP4
Видео кодек: AVC
Аудио кодек: AAC
Видео: MPEG4 Video (H264) 368x272 23.98fps 512kbps
Аудио: AAC 48000Hz stereo 192Kbps








General
Complete name : D:\psp\Scooby-Doo_And_The_Goblin_King_Vampire111.mp4
Format : MPEG-4
Format profile : Base Media
Codec ID : isom
File size : 377 MiB
Duration : 1h 14mn
Overall bit rate : 710 Kbps
Encoded date : UTC 2010-03-31 13:31:24
Tagged date : UTC 2010-03-31 13:31:24

Video
ID : 1
Format : AVC
Format/Info : Advanced Video Codec
Format profile : <a href="mailto:Main@L3.0" class="postLink">Main@L3.0</a>
Format settings, CABAC : Yes
Format settings, ReFrames : 3 frames
Codec ID : avc1
Codec ID/Info : Advanced Video Coding
Duration : 1h 14mn
Bit rate mode : Variable
Bit rate : 512 Kbps
Maximum bit rate : 2 110 Kbps
Width : 368 pixels
Height : 272 pixels
Display aspect ratio : 4:3
Frame rate mode : Constant
Frame rate : 23.976 fps
Resolution : 8 bits
Colorimetry : 4:2:0
Scan type : Progressive
Bits/(Pixel*Frame) : 0.213
Stream size : 272 MiB (72%)
Writing library : x264 core 56 svn-667M
Encoding settings : cabac=1 / ref=2 / deblock=1:0:0 / analyse=0x1:0x131 / me=umh / subme=6 / brdo=1 / mixed_ref=1 / me_range=16 / chroma_me=1 / trellis=1 / 8x8dct=0 / cqm=0 / deadzone=21,11 / chroma_qp_offset=0 / threads=2 / nr=0 / decimate=1 / mbaff=0 / bframes=3 / b_pyramid=0 / b_adapt=1 / b_bias=0 / direct=3 / wpredb=1 / bime=1 / keyint=250 / keyint_min=25 / scenecut=40(pre) / rc=2pass / bitrate=512 / ratetol=1.0 / rceq='blurCplx^(1-qComp)' / qcomp=0.60 / qpmin=10 / qpmax=51 / qpstep=4 / cplxblur=20.0 / qblur=0.5 / ip_ratio=1.40 / pb_ratio=1.30
Encoded date : UTC 2010-03-31 13:31:24
Tagged date : UTC 2010-03-31 13:33:09

Audio
ID : 2
Format : AAC
Format/Info : Advanced Audio Codec
Format version : Version 4
Format profile : LC
Format settings, SBR : No
Codec ID : 40
Duration : 1h 14mn
Bit rate mode : Variable
Bit rate : 192 Kbps
Maximum bit rate : 226 Kbps
Channel(s) : 2 channels
Channel positions : L R
Sampling rate : 48.0 KHz
Stream size : 103 MiB (27%)
Encoded date : UTC 2010-03-31 13:33:03
Tagged date : UTC 2010-03-31 13:33:09




Трекер:  [ 09-Июн-2012 16:06 ]

  

Скачать .torrent

Размер .torrent файла 15 KB


Размер: 377 MB
Хэш (hash) релиза: 813219c24366d8a24d3c4e2dbf10e2bf52fdf8d0
Подписка на обновления:

Еще никто не оставлял запись к записи скачать торрент [MULT4PSP] Скуби-Ду и Король Гоблинов Scooby-Doo and the Goblin King . Будь первым!

!Обратная связь