Скачать через торрент [MULT] Ледниковый период Тупиковый период Фильм бесплатно в хорошем качестве torrent

Скачивайте на UnionPeer.org фильмы через торрент без регистрации. Новинки кино в хорошем качестве через торрент. На UnionPeer.org можно скачать через торрент фильмы 2014 и 2015 годов. Самые новые фильмы.

Скачать торрент [MULT] Ледниковый период Тупиковый период бесплатно через .torrent фильм мультфильм сериал

Если у вас наблюдаются проблемы со скриншотами, переходом по ссылками, скачиванием торрентов - проблемы в блокировщике рекламы AdBlock. #хорошегоДня!


Статистика раздачи
Размер:  376 MB   |    Зарегистрирован:  5 лет 2 месяца   |    .torrent скачан:  104 раза   |   
Раздают:  1  
   
Загрузка...
 
Автор Сообщение

Galfimbul

avatar Galfimbul


Ледниковый период / Тупиковый период / Ice Age
Оригинальное название: Ice Age
Год выпуска: 2002 г.
Страна: США
Жанр: Мультфильм, приключения, комедия
Продолжительность: 01:21:04
Перевод:

Любительский пародийный (Держиморда)

Cубтитры: нет
Режиссер: Крис Уэдж / Chris Wedge, Карлос Салдана / Carlos Saldanha

В ролях: Рэй Романо, Джон Легуизамо, Денис Лири, Горан Вишнич, Джек Блэк, Седрик «Развлекатель», Стивен Рут, Дидрих Бадер, Алан Тьюдик, Лорри Бэгли

Описание: Тысячи доисторических животных мигрируют на юг, чтобы уйти от приближающегося колотуна, который влечёт отупение от замерзания клеток мозга. Одинокий и мутный мамонт Нафаня вместе со своим новоявленным корешем Сидором принимают решение остаться на севере и отупеть в корень. Случайно эта парочка встречает спиногрыза лысых обезьян, у которого мать погибла ради спасения потомка. Сидор убеждает Нафаню вернуть малыша его семейству и им понадобится помощь Слоноедова, хитрого саблезубого тигра, чтобы найти племя лысых обезьян
Качество видео: HDRip
Формат: MP4
Видео кодек: H.264
Аудио кодек: AAC
Видео: 480x272 (16:9), 23.976 fps, x264 ~512 kbps avg, 0.164 bit/pixel
Аудио: AAC-LC VBR 2 channels, 48.0 KHz ~128 Kbps Любительский пародийный (Держиморда)
General
Complete name : D:\Фильмы\PSP\Мультики\Tupikovyi Period (2002)\Tupikovyi Period (2002).mp4
Format : MPEG-4
Format profile : Base Media
Codec ID : isom
File size : 373 MiB
Duration : 1h 21mn
Overall bit rate mode : Variable
Overall bit rate : 644 Kbps
Encoded date : UTC 2012-01-20 10:11:17
Tagged date : UTC 2012-01-20 10:11:17
Writing application : Yamb 2.1.0.0

Video
ID : 1
Format : AVC
Format/Info : Advanced Video Codec
Format profile : <a href="mailto:Main@L3.0" class="postLink">Main@L3.0</a>
Format settings, CABAC : Yes
Format settings, ReFrames : 3 frames
Codec ID : avc1
Codec ID/Info : Advanced Video Coding
Duration : 1h 21mn
Bit rate : 512 Kbps
Maximum bit rate : 4 511 Kbps
Width : 480 pixels
Height : 272 pixels
Display aspect ratio : 16:9
Frame rate mode : Constant
Frame rate : 23.976 fps
Color space : YUV
Chroma subsampling : 4:2:0
Bit depth : 8 bits
Scan type : Progressive
Bits/(Pixel*Frame) : 0.164
Stream size : 297 MiB (80%)
Writing library : x264 core 119 r2106 07efeb4
Encoding settings : cabac=1 / ref=3 / deblock=1:1:1 / analyse=0x1:0x131 / me=umh / subme=7 / psy=1 / psy_rd=0.40:0.00 / mixed_ref=1 / me_range=16 / chroma_me=1 / trellis=2 / 8x8dct=0 / cqm=0 / deadzone=21,11 / fast_pskip=0 / chroma_qp_offset=-2 / threads=1 / sliced_threads=0 / nr=0 / decimate=0 / interlaced=0 / bluray_compat=0 / constrained_intra=0 / bframes=3 / b_pyramid=0 / b_adapt=2 / b_bias=0 / direct=3 / weightb=1 / open_gop=0 / weightp=2 / keyint=250 / keyint_min=23 / scenecut=40 / intra_refresh=0 / rc_lookahead=60 / rc=2pass / mbtree=1 / bitrate=512 / ratetol=1.0 / qcomp=0.80 / qpmin=0 / qpmax=69 / qpstep=4 / cplxblur=20.0 / qblur=0.5 / ip_ratio=1.40 / aq=1:0.60
Encoded date : UTC 2012-01-18 13:22:55
Tagged date : UTC 2012-01-20 10:11:50

Audio
ID : 2
Format : AAC
Format/Info : Advanced Audio Codec
Format profile : LC
Codec ID : 40
Duration : 1h 21mn
Bit rate mode : Variable
Bit rate : 128 Kbps
Maximum bit rate : 178 Kbps
Channel(s) : 2 channels
Channel positions : Front: L R
Sampling rate : 48.0 KHz
Compression mode : Lossy
Stream size : 74.3 MiB (20%)
Encoded date : UTC 2012-01-20 10:11:44
Tagged date : UTC 2012-01-20 10:11:50
x264.exe: --pass 2 --bitrate 512 --preset medium --level 3.0 --aq-strength 0.6 --deblock 1:1 --direct auto --b-adapt 2 --b-pyramid none --trellis 2 --no-fast-pskip --no-dct-decimate --psy-rd 0.40:0.00 --qcomp 0.80 --partitions p8x8,b8x8,i4x4,p4x4 --no-8x8dct --me umh --rc-lookahead 60 --stats "D:\Temp\0214.log" --sar 1:1 --output "D:\Temp\0214.264" "D:\Temp\0214.avs"

avs [info]: 480x272p 1:1 @ 2500000/104271 fps (cfr)
x264 [info]: using SAR=1/1
x264 [info]: using cpu capabilities: MMX2 SSE2Slow SlowCTZ
x264 [info]: profile Main, level 3.0

x264 [info]: frame I:1415 Avg QP:15.63 size: 19275
x264 [info]: frame P:52493 Avg QP:19.38 size: 3610
x264 [info]: frame B:62730 Avg QP:22.49 size: 1508
x264 [info]: consecutive B-frames: 12.3% 38.2% 29.0% 20.4%
x264 [info]: mb I I16..4: 18.4% 0.0% 81.6%
x264 [info]: mb P I16..4: 2.5% 0.0% 4.5% P16..4: 35.0% 9.9% 8.3% 1.6% 0.5% skip:37.6%
x264 [info]: mb B I16..4: 0.4% 0.0% 1.3% B16..8: 22.2% 7.6% 2.3% direct: 3.7% skip:62.6% L0:36.3% L1:46.8% BI:16.9%
x264 [info]: direct mvs spatial:69.2% temporal:30.8%
x264 [info]: coded y,uvDC,uvAC intra: 71.0% 73.2% 49.4% inter: 19.1% 15.4% 6.6%
x264 [info]: i16 v,h,dc,p: 23% 33% 14% 30%
x264 [info]: i4 v,h,dc,ddl,ddr,vr,hd,vl,hu: 17% 20% 18% 7% 9% 8% 8% 7% 7%
x264 [info]: i8c dc,h,v,p: 48% 24% 17% 11%
x264 [info]: Weighted P-Frames: Y:3.1% UV:1.6%
x264 [info]: ref P L0: 69.3% 11.1% 13.0% 6.3% 0.2%
x264 [info]: ref B L0: 82.5% 17.5%
x264 [info]: kb/s:511.99

x264 [total]: encoded 116638 frames, 11.75 fps, 511.99 kb/s


Трекер:  [ 09-Июн-2012 16:06 ]

  

Скачать .torrent

Размер .torrent файла 15 KB


Размер: 376 MB
Хэш (hash) релиза: beecfc62077ed3dc12d7197ee2837a506d1c6000
Подписка на обновления:

Еще никто не оставлял запись к записи скачать торрент [MULT] Ледниковый период Тупиковый период . Будь первым!

!Обратная связь