Скачать через торрент [MULT4PSP] Приключения Джеки Чана Jackie Chan Adventures Фильм бесплатно в хорошем качестве torrent

Скачивайте на UnionPeer.org фильмы через торрент без регистрации. Новинки кино в хорошем качестве через торрент. На UnionPeer.org можно скачать через торрент фильмы 2014 и 2015 годов. Самые новые фильмы.

Скачать торрент [MULT4PSP] Приключения Джеки Чана Jackie Chan Adventures бесплатно через .torrent фильм мультфильм сериал

Если у вас наблюдаются проблемы со скриншотами, переходом по ссылками, скачиванием торрентов - проблемы в блокировщике рекламы AdBlock. #хорошегоДня!


Статистика раздачи
Размер:  1.14 GB   |    Зарегистрирован:  5 лет 2 месяца   |    .torrent скачан:  85 раз   |   
Раздают:  1  
   
Загрузка...
 
Автор Сообщение

Galfimbul

avatar Galfimbul



Jackie Chan Adventures(Приключения Джеки Чана)The Demon Powers

Оригинальное Название: Jackie Chan Adventures
Год выхода: 2005
Жанр: приключения, фэнтези, комедия, мистика
Перевод: Профессиональный (многоголосый, закадровый)
Продолжительность: ~21 минута серия

Кол-во Сезонов: 1
Кол-во Серий: 13

Режиссер: Дэвид Хартман / David Hartman , Кэлвин Ли / Kalvin Lee , Джей Олива / Jay Oliva



Описание:
Захватывающий мультсериал с участием отважного охотника за древностями Джеки! Образ анимационного персонажа Джеки объединил в себе черты сразу двух известных героев: прославленного археолога Индианы Джонса и всемирно известного актёра – Джеки Чана. Как и его прототип, Джеки Чан путешествует по миру в поисках древностей, многие из которых обнаруживают в себе магические свойства. Кроме того, мультяшный Джеки как две капли воды похож на киноактёра, любимца и детей и взрослых – Джеки Чана. Подобно герою боевиков Джеки Чану, рисованный Джеки виртуозно владеет восточными единоборствами, он стремительный, неуловимый, он борется со злом во всех его проявлениях. В мультсериале «Приключения Джеки Чана» Джеки предстоит выполнить несколько ответственных заданий. Самое важное получено им от сверхсекретного правительственного отдела №13. Джеки должен отыскать все 12 волшебных талисманов, каждый из которых связан с магическим животным и обладает определённой силой. При этом нельзя забывать, что за этими талисманами охотятся агенты зловещего криминального синдиката «Рука тьмы», возглавляемого злодеем Вальмонтом и вдохновляемого коварным демоном Шенду. Однако еще более трудным заданием для Джеки окажется необходимость заботиться о своей маленькой и непоседливой племяннице Джейд, только что приехавшей из Гонконга. Джейд повсюду суёт свой любопытный носик, и часто мешает Джеки в выполнении секретных операций. Помогать Джеки в экспедициях будут пожилой владелец лавки древностей, которого Джеки называет дядюшкой, и великан Тору. Джеки, Джейд, Тору, и старого дядюшку ждут удивительные приключения! Отправтесь вместе с ними на поиски волшебных талисманов! И это еще не всё: у вас есть отличная возможность узнать больше о Джеки Чане! В конце каждой серии реальный Джеки Чан появляется, чтобы ответить на интересные вопросы детей!



(1) Relics of Demons Past
(2) It's All in the Game
(3) Black and White and Chi All Over
(4) Dragon Scouts
(5) The Demon Beneath My Wings
(6) Mirror, Mirror
(7) Antler Action
(8) Clash of the Titanics
(9) Stealing Thunder
(10) Weight and See
(11) J2: Revisited
(12) The Powers That Be (1)
(13) The Powers That Be (2)


Качество: SATRip
Формат: MP4
Видео кодек: AVC
Аудио кодек: AAC
Видео: 368x272 25fps 512kbps
Аудио: AAC 48000Hz stereo 129Kbps

General
Complete name : E:\Video4PSP\Приключения Джеки Чана\The Demon Powers(5)\S05E01.mp4
Format : MPEG-4
Format profile : Base Media
Codec ID : isom
File size : 89.9 MiB
Duration : 19mn 31s
Overall bit rate : 644 Kbps
Encoded date : UTC 2010-04-26 11:40:32
Tagged date : UTC 2010-04-26 11:40:32

Video
ID : 1
Format : AVC
Format/Info : Advanced Video Codec
Format profile : <a href="mailto:Main@L3.0" class="postLink">Main@L3.0</a>
Format settings, CABAC : Yes
Format settings, ReFrames : 3 frames
Codec ID : avc1
Codec ID/Info : Advanced Video Coding
Duration : 19mn 31s
Bit rate mode : Variable
Bit rate : 512 Kbps
Maximum bit rate : 1 773 Kbps
Width : 368 pixels
Height : 272 pixels
Display aspect ratio : 4:3
Frame rate mode : Constant
Frame rate : 25.000 fps
Resolution : 8 bits
Colorimetry : 4:2:0
Scan type : Progressive
Bits/(Pixel*Frame) : 0.205
Stream size : 71.5 MiB (80%)
Writing library : x264 core 56 svn-667M
Encoding settings : cabac=1 / ref=2 / deblock=1:0:0 / analyse=0x1:0x131 / me=umh / subme=6 / brdo=1 / mixed_ref=1 / me_range=16 / chroma_me=1 / trellis=1 / 8x8dct=0 / cqm=0 / deadzone=21,11 / chroma_qp_offset=0 / threads=2 / nr=0 / decimate=1 / mbaff=0 / bframes=3 / b_pyramid=0 / b_adapt=1 / b_bias=0 / direct=3 / wpredb=1 / bime=1 / keyint=250 / keyint_min=25 / scenecut=40(pre) / rc=2pass / bitrate=512 / ratetol=1.0 / rceq='blurCplx^(1-qComp)' / qcomp=0.60 / qpmin=10 / qpmax=51 / qpstep=4 / cplxblur=20.0 / qblur=0.5 / ip_ratio=1.40 / pb_ratio=1.30
Encoded date : UTC 2010-04-26 11:40:32
Tagged date : UTC 2010-04-26 11:40:39

Audio
ID : 2
Format : AAC
Format/Info : Advanced Audio Codec
Format version : Version 4
Format profile : LC
Format settings, SBR : No
Codec ID : 40
Duration : 19mn 31s
Bit rate mode : Variable
Bit rate : 129 Kbps
Maximum bit rate : 140 Kbps
Channel(s) : 2 channels
Channel positions : L R
Sampling rate : 48.0 KHz
Stream size : 18.0 MiB (20%)
Encoded date : UTC 2010-04-26 11:40:39
Tagged date : UTC 2010-04-26 11:40:39




Трекер:  [ 09-Июн-2012 09:22 ]

  

Скачать .torrent

Размер .torrent файла 12 KB


Размер: 1.14 GB
Хэш (hash) релиза: 8d0c1a0b9e444dea806a372d68ebcc82d4a219d2
Подписка на обновления:

Еще никто не оставлял запись к записи скачать торрент [MULT4PSP] Приключения Джеки Чана Jackie Chan Adventures . Будь первым!

!Обратная связь