Скачать через торрент Книга Драконов Book of Dragons Фильм бесплатно в хорошем качестве torrent

Скачивайте на UnionPeer.org фильмы через торрент без регистрации. Новинки кино в хорошем качестве через торрент. На UnionPeer.org можно скачать через торрент фильмы 2014 и 2015 годов. Самые новые фильмы.

Скачать торрент Книга Драконов Book of Dragons бесплатно через .torrent фильм мультфильм сериал

Если у вас наблюдаются проблемы со скриншотами, переходом по ссылками, скачиванием торрентов - проблемы в блокировщике рекламы AdBlock. #хорошегоДня!


Статистика раздачи
Размер:  81 MB   |    Зарегистрирован:  5 лет 2 месяца   |    .torrent скачан:  38 раз   |   
Раздают:  1  
   
Загрузка...
 
Автор Сообщение

Galfimbul

avatar Galfimbul




Книга Драконов/ Book of Dragons
Оригинальное название: Book of Dragons
Год выпуска: 2011 г.
Страна: США
Жанр: короткометражный мультфильм, приключения, фэнтези
Продолжительность: 0:17:38
Перевод:

Любительский (многоголосый закадровый) SkyeFilmTV

Cубтитры: нет
Режиссер: Стив Хикнер / Steve Hickner
Роли озвучивали: Джей Барушель, Крэйг Фергюсон, Америка Феррера, Кристофер Минц-Плассе, Джим Каммингс , Тресс МакНилл
Описание: Итак, ты хочешь стать драконьим тренером, не так ли? Приготовься к приключениям, азарту и тренировкам - Иккинг, Астрид, Беззубик и Плевака поведают легенды из Книги Драконов и раскроют секреты о новых, никогда-ранее-не-виданных драконах.
Качество видео: HDRip
Формат: MP4
Видео кодек: H.264
Аудио кодек: AAC
Видео: 480x272 (16:9), 23.976 fps, x264 ~512 kbps avg, 0.164 bit/pixel
Аудио: AAC-LC VBR 2 channels, 48.0 KHz ~128 Kbps Любительский (многоголосый закадровый) SkyeFilmTV
General
Complete name : D:\Фильмы\PSP\Мультики\Book of Dragons (2011)\Book of Dragons (2011).mp4
Format : MPEG-4
Format profile : Base Media
Codec ID : isom
File size : 81.2 MiB
Duration : 17mn 38s
Overall bit rate mode : Variable
Overall bit rate : 643 Kbps
Encoded date : UTC 2012-04-25 16:30:23
Tagged date : UTC 2012-04-25 16:30:23
Writing application : Yamb 2.1.0.0

Video
ID : 2
Format : AVC
Format/Info : Advanced Video Codec
Format profile : <a href="mailto:Main@L3.0" class="postLink">Main@L3.0</a>
Format settings, CABAC : Yes
Format settings, ReFrames : 3 frames
Codec ID : avc1
Codec ID/Info : Advanced Video Coding
Duration : 17mn 38s
Bit rate : 512 Kbps
Maximum bit rate : 1 842 Kbps
Width : 480 pixels
Height : 272 pixels
Display aspect ratio : 16:9
Frame rate mode : Constant
Frame rate : 23.976 fps
Color space : YUV
Chroma subsampling : 4:2:0
Bit depth : 8 bits
Scan type : Progressive
Bits/(Pixel*Frame) : 0.164
Stream size : 64.6 MiB (80%)
Writing library : x264 core 120 r2164 da19765
Encoding settings : cabac=1 / ref=3 / deblock=1:0:0 / analyse=0x1:0x131 / me=umh / subme=9 / psy=1 / psy_rd=1.00:0.00 / mixed_ref=1 / me_range=16 / chroma_me=1 / trellis=2 / 8x8dct=0 / cqm=0 / deadzone=21,11 / fast_pskip=0 / chroma_qp_offset=-2 / threads=1 / sliced_threads=0 / nr=0 / decimate=0 / interlaced=0 / bluray_compat=0 / constrained_intra=0 / bframes=3 / b_pyramid=0 / b_adapt=2 / b_bias=0 / direct=3 / weightb=1 / open_gop=0 / weightp=1 / keyint=250 / keyint_min=23 / scenecut=40 / intra_refresh=0 / rc=2pass / mbtree=0 / bitrate=512 / ratetol=1.0 / qcomp=0.60 / qpmin=0 / qpmax=69 / qpstep=4 / cplxblur=20.0 / qblur=0.5 / ip_ratio=1.40 / pb_ratio=1.30 / aq=1:1.00
Encoded date : UTC 2012-04-24 12:13:55
Tagged date : UTC 2012-04-25 16:30:30

Audio
ID : 1
Format : AAC
Format/Info : Advanced Audio Codec
Format profile : LC
Codec ID : 40
Duration : 17mn 38s
Source duration : 17mn 38s
Bit rate mode : Variable
Bit rate : 128 Kbps
Maximum bit rate : 141 Kbps
Channel(s) : 2 channels
Channel positions : Front: L R
Sampling rate : 48.0 KHz
Compression mode : Lossy
Stream size : 16.1 MiB (20%)
Source stream size : 16.1 MiB
Encoded date : UTC 2012-04-25 16:30:23
Tagged date : UTC 2012-04-25 16:30:30
x264.exe: --pass 2 --bitrate 512 --preset medium --level 3.0 --direct auto --b-adapt 2 --b-pyramid none --weightp 1 --trellis 2 --no-fast-pskip --no-dct-decimate --partitions p8x8,b8x8,i4x4,p4x4 --no-8x8dct --subme 9 --me umh --no-mbtree --stats "D:\Temp\0045.log" --sar 1:1 --output "D:\Temp\0045.264" "D:\Temp\0045.avs"

avs [info]: 480x272p 1:1 @ 2500000/104271 fps (cfr)
x264 [info]: using SAR=1/1
x264 [info]: using cpu capabilities: MMX2 SSE2Slow SlowCTZ
x264 [info]: profile Main, level 3.0

x264 [info]: frame I:187 Avg QP:17.49 size: 26041
x264 [info]: frame P:11881 Avg QP:20.30 size: 3844
x264 [info]: frame B:13308 Avg QP:23.49 size: 1289
x264 [info]: consecutive B-frames: 12.8% 40.8% 32.8% 13.6%
x264 [info]: mb I I16..4: 15.9% 0.0% 84.1%
x264 [info]: mb P I16..4: 2.2% 0.0% 5.2% P16..4: 36.0% 10.1% 10.5% 1.7% 0.7% skip:33.6%
x264 [info]: mb B I16..4: 0.3% 0.0% 1.0% B16..8: 26.3% 6.7% 3.0% direct: 3.6% skip:59.1% L0:35.4% L1:51.6% BI:13.0%
x264 [info]: direct mvs spatial:75.7% temporal:24.3%
x264 [info]: coded y,uvDC,uvAC intra: 79.3% 78.5% 56.6% inter: 19.4% 19.9% 10.6%
x264 [info]: i16 v,h,dc,p: 40% 18% 10% 32%
x264 [info]: i4 v,h,dc,ddl,ddr,vr,hd,vl,hu: 6% 6% 6% 10% 15% 12% 15% 12% 18%
x264 [info]: i8c dc,h,v,p: 44% 23% 15% 17%
x264 [info]: Weighted P-Frames: Y:8.1% UV:5.6%
x264 [info]: ref P L0: 80.5% 11.6% 7.9%
x264 [info]: ref B L0: 82.8% 17.2%
x264 [info]: kb/s:511.67

x264 [total]: encoded 25376 frames, 9.06 fps, 511.67 kb/s


Трекер:  [ 09-Июн-2012 08:54 ]

  

Скачать .torrent

Размер .torrent файла 13 KB


Размер: 81 MB
Хэш (hash) релиза: 5ee4fcdce1ad15109e4ccd11b39f9fb1fe9bcd07
Подписка на обновления:

Торренты, похожие на Книга Драконов Book of Dragons скачать торрент

Форум Название Автор Размер S L Добавлен
Мультфильмы до 2016 ·· Книга драконов / Book of Dragons (Стив Хикнер / Steve Hickner) [2011, короткометражный анимационный фильм, BDRip] DUB + MVO + VO + ENG + SUB (rus, eng) Galfimbul 513782091490 MB 0 0 1383144804

17:53

30-Окт-13

Мультфильмы до 2016 ·· Книга Драконов / Book of Dragons (Стив Хикнер / Steve Hickner) [2011, фэнтези, комедия, мультфильм, короткометражка, BDRemux 1080p] Dub (Невафильм) + MVO (SkyeFilmTV) + VO (Доцент) Galfimbul 59829280495.57 GB 0 0 1362408656

17:50

4-Мар-13

Мультфильмы до 2016 ·· Книга Драконов / Book of Dragons (Стив Хикнер / Steve Hickner) [2011, фэнтези, комедия, мультфильм, короткометражка, BDRip 720p] Dub (Невафильм) + MVO (SkyeFilmTV) + VO (Доцент) Galfimbul 846383632807 MB 0 0 1362408651

17:50

4-Мар-13

Мультфильмы до 2016 ·· Книга Драконов / Book of Dragons (Стив Хикнер / Steve Hickner) [2011, фэнтези, комедия, мультфильм, короткометражка, HDRip] VO L 222939136213 MB 0 0 1325844305

13:05

6-Янв-12

Мультфильмы до 2016 ·· Драконы: Легенда о Костоломе; Подарок Ночной Фурии; Книга Драконов / Legend of the BoneKnapper Dragon; Gift of the Night Fury; Book of Dragons (Джон Пуглиси, Том Оуенс, Стив Хикнер / John Puglisi, Tom Owens, Steve Hickner)[2010-2011, мультфильм, DVB] Galfimbul 15284668841.42 GB 0 0 1361760667

05:51

25-Фев-13

Зарубежные фильмы до 2016 ·· Подземелье драконов 3: Книга заклинаний / Dungeons & Dragons: The Book of Vile Darkness (Джерри Лайвли / Gerry Lively) [2012, Великобритания, фэнтези, приключения, HDRip] MVO Galfimbul 14674432001.37 GB 0 0 1356009240

16:14

20-Дек-12

Еще никто не оставлял запись к записи скачать торрент Книга Драконов Book of Dragons . Будь первым!

!Обратная связь