Скачать через торрент Как приручить дракона: Дар Ночной Фурии Dragons: Gift of the Night Fury Фильм бесплатно в хорошем качестве torrent

Скачивайте на UnionPeer.org фильмы через торрент без регистрации. Новинки кино в хорошем качестве через торрент. На UnionPeer.org можно скачать через торрент фильмы 2014 и 2015 годов. Самые новые фильмы.

Скачать торрент Как приручить дракона: Дар Ночной Фурии Dragons: Gift of the Night Fury бесплатно через .torrent фильм мультфильм сериал

Если у вас наблюдаются проблемы со скриншотами, переходом по ссылками, скачиванием торрентов - проблемы в блокировщике рекламы AdBlock. #хорошегоДня!


Статистика раздачи
Размер:  102 MB   |    Зарегистрирован:  5 лет 5 месяцев   |    .torrent скачан:  47 раз   |   
Раздают:  1  
   
Загрузка...
 
Автор Сообщение

Galfimbul

avatar Galfimbul


Как приручить дракона: Дар Ночной Фурии Dragons: Gift of the Night Fury
Оригинальное название: Dragons: Gift of the Night Fury
Год выпуска: 2011 г.
Страна: США
Жанр: короткометражный мультфильм, приключения, фэнтези
Продолжительность: 0:22:12
Перевод:

Любительский (многоголосый закадровый) SkyeFilmTV

Cубтитры: нет
Режиссер: Том Оуенс / Tom Owens;
Роли озвучивали: Джей Барушель, Джерард Батлер, Крэйг Фергюсон, Америка Феррера, Джона Хилл, ТиДжей Миллер, Кристофер Минц-Плассе, Кристен Уиг
Описание: Перед ежегодным праздником у Викингов все местные драконы неожиданно улетают в неизвестном направлении, и Иккингу предстоит разрешить эту загадку. Это новая история о драконе Беззубике, викинге Иккинге, и дружбе.
Доп. информация: Это короткометражное прямое продолжение мультфильма "Как приручить дракона". Короткометражка была создана практически тем же составом, что работал над мультфильмом. События короткометражки были согласованы с Дином ДеБлуа, режиссёром полнометражного продолжения "Как приручить дракона 2", выход которого остается намеченным на 20 июня 2014 года.
За перевод спасибо Kodar, а за озвучку по переводу спасибо SkyeFilmTV.
Качество видео: HDRip
Формат: MP4
Видео кодек: H.264
Аудио кодек: AAC
Видео: 480x272 (16:9), 23.976 fps, x264 ~512 kbps avg, 0.164 bit/pixel
Аудио: AAC-LC VBR 2 channels, 48.0 KHz ~128 Kbps Любительский (многоголосый закадровый) SkyeFilmTV
General
Complete name : D:\Фильмы\PSP\Мультики\Dragons - Gift of the Night Fury (2011)\Dragons - Gift of the Night Fury (2011).mp4
Format : MPEG-4
Format profile : Base Media
Codec ID : isom
File size : 102 MiB
Duration : 22mn 12s
Overall bit rate mode : Variable
Overall bit rate : 644 Kbps
Encoded date : UTC 2012-04-18 16:43:01
Tagged date : UTC 2012-04-18 16:43:01
Writing application : Yamb 2.1.0.0

Video
ID : 1
Format : AVC
Format/Info : Advanced Video Codec
Format profile : <a href="mailto:Main@L3.0" class="postLink">Main@L3.0</a>
Format settings, CABAC : Yes
Format settings, ReFrames : 3 frames
Codec ID : avc1
Codec ID/Info : Advanced Video Coding
Duration : 22mn 12s
Bit rate : 512 Kbps
Maximum bit rate : 1 989 Kbps
Width : 480 pixels
Height : 272 pixels
Display aspect ratio : 16:9
Frame rate mode : Constant
Frame rate : 23.976 fps
Color space : YUV
Chroma subsampling : 4:2:0
Bit depth : 8 bits
Scan type : Progressive
Bits/(Pixel*Frame) : 0.164
Stream size : 81.4 MiB (80%)
Writing library : x264 core 120 r2164 da19765
Encoding settings : cabac=1 / ref=3 / deblock=1:0:0 / analyse=0x1:0x131 / me=umh / subme=9 / psy=1 / psy_rd=1.00:0.00 / mixed_ref=1 / me_range=16 / chroma_me=1 / trellis=2 / 8x8dct=0 / cqm=0 / deadzone=21,11 / fast_pskip=0 / chroma_qp_offset=-2 / threads=1 / sliced_threads=0 / nr=0 / decimate=0 / interlaced=0 / bluray_compat=0 / constrained_intra=0 / bframes=3 / b_pyramid=0 / b_adapt=2 / b_bias=0 / direct=3 / weightb=1 / open_gop=0 / weightp=1 / keyint=250 / keyint_min=23 / scenecut=40 / intra_refresh=0 / rc=2pass / mbtree=0 / bitrate=512 / ratetol=1.0 / qcomp=0.60 / qpmin=0 / qpmax=69 / qpstep=4 / cplxblur=20.0 / qblur=0.5 / ip_ratio=1.40 / pb_ratio=1.30 / aq=1:1.00
Encoded date : UTC 2012-04-17 05:16:33
Tagged date : UTC 2012-04-18 16:43:28

Audio
ID : 2
Format : AAC
Format/Info : Advanced Audio Codec
Format profile : LC
Codec ID : 40
Duration : 22mn 12s
Bit rate mode : Variable
Bit rate : 128 Kbps
Maximum bit rate : 148 Kbps
Channel(s) : 2 channels
Channel positions : Front: L R
Sampling rate : 48.0 KHz
Compression mode : Lossy
Stream size : 20.3 MiB (20%)
Encoded date : UTC 2012-04-18 16:43:22
Tagged date : UTC 2012-04-18 16:43:28


Трекер:  [ 09-Июн-2012 08:56 ]

  

Скачать .torrent

Размер .torrent файла 16 KB


Размер: 102 MB
Хэш (hash) релиза: 7162aec9caf783c56762ec02d8e15deb2fe0c773
Подписка на обновления:

Торренты, похожие на Как приручить дракона: Дар Ночной Фурии Dragons: Gift of the Night Fury скачать торрент

Форум Название Автор Размер S L Добавлен
Мультфильмы до 2016 ·· Драконы: Подарок Ночной Фурии / Как приручить дракона: Дар Ночной Фурии / Dragons: Gift of the Night Fury (Том Оуенс / Tom Owens) [2011, короткометражка, BDRip] DUB + MVO + VO + ENG + SUB (rus, eng) Galfimbul 626514933597 MB 0 0 1383144800

17:53

30-Окт-13

Мультфильмы до 2016 ·· Драконы: Подарок Ночной Фурии / Как приручить дракона: Дар Ночной Фурии / Dragons: Gift of the Night Fury (Том Оуенс / Tom Owens) [2011, фэнтези, дружба, комедия, приключения, семейный, мультфильм, BDRemux 1080p] Dub (Невафильм) + MVO (SkyeFilmTV) Galfimbul 69897492216.51 GB 0 0 1362408666

17:51

4-Мар-13

Мультфильмы до 2016 ·· Драконы: Подарок Ночной Фурии / Как приручить дракона: Дар Ночной Фурии / Dragons: Gift of the Night Fury (Том Оуенс / Tom Owens) [2011, фэнтези, дружба, комедия, приключения, семейный, мультфильм, BDRip 720p] Dub (Невафильм) + MVO (SkyeFilmTV) Galfimbul 13245826911.23 GB 0 0 1362408661

17:51

4-Мар-13

Мультфильмы до 2016 ·· Как приручить дракона: Дар Ночной Фурии / Dragons: Gift of the Night Fury (Том Оуенс / Tom Owens) [2011, фэнтези, дружба, комедия, приключения, семейный, мультфильм, BDrip 720p] MVO (SkyeFilmTV) + VO (Доцент) + Original + Rus Sub + Eng Sub L 12872171151.2 GB 0 0 1331055180

20:33

6-Мар-12

Мультфильмы до 2016 ·· Как приручить дракона: Дар Ночной Фурии / Dragons: Gift of the Night Fury (Том Оуенс / Tom Owens) [2011, фэнтези, дружба, комедия, приключения, семейный, мультфильм, BDRemux 1080p] MVO (SkyeFilmTV) + VO (Доцент) + Original + Rus Sub + Eng Sub L 69523681806.47 GB 0 0 1331055120

20:32

6-Мар-12

Мультфильмы до 2016 ·· Как приручить дракона: Дар ночной фурии / Dragons: Gift of the Night Fury (Том Оуенс / Tom Owens) [2011, мультфильм, короткометражка, приключения, Blu-ray Disc (custom) 1080p] L 2064241209119.22 GB 0 0 1331055060

20:31

6-Мар-12

Мультфильмы до 2016 ·· Как приручить дракона: Дар ночной фурии / Dragons: Gift of the Night Fury (Том Оуенс) [2011 г., мультфильм, короткометражка, приключения, семейный, WEBRip] L 366862336350 MB 0 0 1322384373

11:59

27-Ноя-11

Еще никто не оставлял запись к записи скачать торрент Как приручить дракона: Дар Ночной Фурии Dragons: Gift of the Night Fury . Будь первым!

!Обратная связь