Скачать через торрент [MULT] Люди в Чёрном: мультсериал Men in Black: The Animated Series Фильм бесплатно в хорошем качестве torrent

Скачивайте на UnionPeer.org фильмы через торрент без регистрации. Новинки кино в хорошем качестве через торрент. На UnionPeer.org можно скачать через торрент фильмы 2014 и 2015 годов. Самые новые фильмы.

Скачать торрент [MULT] Люди в Чёрном: мультсериал Men in Black: The Animated Series бесплатно через .torrent фильм мультфильм сериал

Если у вас наблюдаются проблемы со скриншотами, переходом по ссылками, скачиванием торрентов - проблемы в блокировщике рекламы AdBlock. #хорошегоДня!


Статистика раздачи
Размер:  5.04 GB   |    Зарегистрирован:  5 лет 2 месяца   |    .torrent скачан:  33 раза   |   
Раздают:  1  
   
Загрузка...
 
Автор Сообщение

Galfimbul

avatar Galfimbul


Люди в Чёрном: мультсериал

Оригинальное Название: Men in Black: The Animated Series
Год выпуска: 1997
Страна: США
Жанр: Анимационный, Фантастика, Мультсериал
Продолжительность: ~ 20 минут - серия
Кол-во Сезонов: 4
Кол-во Серий: 53
Перевод: Русский дубляж (Нева 1, СТС)
Режиссер: Лоуелл Каннингэм (LOWELL CUNNINGHAM)
Роли озвучивали:Дженнифер Лиен, Кейт Даймонд, Грегг Бергер, Эд О`Росс
Описание: Анимационный сериал основанный на популярном одноимённом фильме первом. Стоит отметить, что события второго фильма уже основаны на сюжете мультсериала Джэй[J], Кей[K], Эл[L], основные герои сериала, состоят на службе в особо секретной организации "Люди в Черном" [ЛВЧ]. Организация была создана для регулирования и контроля инопланетной иммиграции. ЛВЧ благодаря своим технологиям удаётся хранить долгое время в секрете от общественности факт своего существования.
Список эпизодов 1 сезона
The Long So-Long Syndrome.
The Buzzard Syndrome.
The Irritable Bow-Wow Syndrome.
The Alpha Syndrome.
The Undercover Syndrome.
The Neuralizer Syndrome.
The Symbiote Syndrome.
The Inanimate Syndrome.
The Psychic Link Syndrome.
The Head Trip Syndrome.
The Elle of My Dreams Syndrome.
The I Married an Alien Syndrome.
The Take No Prisoners Syndrome.

Список эпизодов 2 сезона
The Little Big Man Syndrome
The Quick Clone Syndrome
The Heads You Lose Syndrome
The Dog Eat Dog Syndrome
The Big Bad Bug Syndrome
The Jack O'Lantern Syndrome
The Sonic Boom Syndrome
The Bad Seed Syndrome
The Fmall, Fmall World Syndrome
The Black Christmas Syndrome
The Supermen in Black Syndrome
The Star System Syndrome
The Blackguard Syndrome

Список эпизодов 3 сезона
The Worm-Guy Guy Syndrome
The Cold Sweat Syndrome
The Puppy Love Syndrome
The Lost Continent Syndrome
The Way Out West Syndrome
The Mine, Mine, Mine Syndrome
The Bye-Bye Worm Syndrome
The Lights Out Syndrome
The Out To Pasture Syndrome
The Sardines & Ice Cream Syndrome
The I Want My Mummy Syndrome
The Baby Kay Syndrome
The Bad Doggie Syndrome
The J is for James Syndrome

Список эпизодов 4 сезона
The Musical Chairs Syndrome
The Spectacle Syndrome
The Back to School Syndrome
The Opening Gambit Syndrome
The Future's So Bright Syndrome
The Loose Ball Foul Syndrome
The Hots for Jay Syndrome
The Circus Parade Syndrome
The Virtual Crossfire Syndrome
The Breaking News Syndrome
The Zero to Superhero Syndrome
The Endgame Syndrome (1)
The Endgame Syndrome (2)

Качество: SATRip
Формат: MP4
Видео кодек: H.264
Аудио кодек: AAC
Видео: AVC 368x272 25.00fps 512 Kbps
Аудио: AAC LC 48000Hz stereo 128kbps
General
Complete name : D:\torrent\sider\MIB MP4\M.I.B.Series.[1x05].The.Undercover.Syndrome.mp4
Format : MPEG-4
Format profile : Base Media
Codec ID : isom
File size : 94.7 MiB
Duration : 20mn 31s
Overall bit rate : 645 Kbps
Encoded date : UTC 2010-07-15 08:51:07
Tagged date : UTC 2010-07-15 08:51:07

Video
ID : 1
Format : AVC
Format/Info : Advanced Video Codec
Format profile : <a href="mailto:Main@L3.0" class="postLink">Main@L3.0</a>
Format settings, CABAC : Yes
Format settings, ReFrames : 3 frames
Codec ID : avc1
Codec ID/Info : Advanced Video Coding
Duration : 20mn 31s
Bit rate mode : Variable
Bit rate : 512 Kbps
Maximum bit rate : 1 485 Kbps
Width : 368 pixels
Height : 272 pixels
Display aspect ratio : 4:3
Original display aspect ratio : 4:3
Frame rate mode : Constant
Frame rate : 25.000 fps
Color space : YUV
Chroma subsampling : 4:2:0
Bit depth : 8 bits
Scan type : Progressive
Bits/(Pixel*Frame) : 0.205
Stream size : 75.2 MiB (79%)
Writing library : x264 core 56 svn-667M
Encoding settings : cabac=1 / ref=2 / deblock=1:0:0 / analyse=0x1:0x131 / me=umh / subme=6 / brdo=1 / mixed_ref=1 / me_range=16 / chroma_me=1 / trellis=1 / 8x8dct=0 / cqm=0 / deadzone=21,11 / chroma_qp_offset=0 / threads=2 / nr=0 / decimate=1 / mbaff=0 / bframes=3 / b_pyramid=0 / b_adapt=1 / b_bias=0 / direct=3 / wpredb=1 / bime=1 / keyint=250 / keyint_min=25 / scenecut=40(pre) / rc=2pass / bitrate=512 / ratetol=1.0 / rceq='blurCplx^(1-qComp)' / qcomp=0.60 / qpmin=10 / qpmax=51 / qpstep=4 / cplxblur=20.0 / qblur=0.5 / ip_ratio=1.40 / pb_ratio=1.30
Encoded date : UTC 2010-07-15 08:51:07
Tagged date : UTC 2010-07-15 08:51:37

Audio
ID : 2
Format : AAC
Format/Info : Advanced Audio Codec
Format version : Version 4
Format profile : LC
Format settings, SBR : No
Codec ID : 40
Duration : 20mn 31s
Bit rate mode : Variable
Bit rate : 129 Kbps
Maximum bit rate : 145 Kbps
Channel(s) : 2 channels
Channel positions : Front: L R
Sampling rate : 48.0 KHz
Stream size : 19.0 MiB (20%)
Encoded date : UTC 2010-07-15 08:51:36
Tagged date : UTC 2010-07-15 08:51:37


Трекер:  [ 09-Июн-2012 09:18 ]

  

Скачать .torrent

Размер .torrent файла 30 KB


Размер: 5.04 GB
Хэш (hash) релиза: 389bc49a2517a1b0d02779cf36c0ee6ae7401e06
Подписка на обновления:

Еще никто не оставлял запись к записи скачать торрент [MULT] Люди в Чёрном: мультсериал Men in Black: The Animated Series . Будь первым!

!Обратная связь