Скачать через торрент [MULT4PSP] Том и Джерри: Полет на Марс Tom and Jerry Blast Off to Mars! Фильм бесплатно в хорошем качестве torrent

Скачивайте на UnionPeer.org фильмы через торрент без регистрации. Новинки кино в хорошем качестве через торрент. На UnionPeer.org можно скачать через торрент фильмы 2014 и 2015 годов. Самые новые фильмы.

Скачать торрент [MULT4PSP] Том и Джерри: Полет на Марс Tom and Jerry Blast Off to Mars! бесплатно через .torrent фильм мультфильм сериал

Если у вас наблюдаются проблемы со скриншотами, переходом по ссылками, скачиванием торрентов - проблемы в блокировщике рекламы AdBlock. #хорошегоДня!


Статистика раздачи
Размер:  377 MB   |    Зарегистрирован:  5 лет 4 месяца   |    .torrent скачан:  34 раза   |   
Раздают:  1  
   
Загрузка...
 
Автор Сообщение

Galfimbul

avatar Galfimbul




Tom and Jerry Blast Off to Mars!
(Том и Джерри: Полет на Марс)

Оригинальное Название: Tom and Jerry Blast Off to Mars!
Год Выпуска: 2005
Cтрана: США
Жанр: Мультфильм
Продолжительность: 1:14:26
Перевод: Профессиональный (полное дублирование)

Режиссер: Билл Копп / Bill Kopp

В главных ролях: Том / Tom, Джерри / Jerry и дгугие.

Описание:
Описание: В этом захватывающем полнометражном анимационном фильме мы приглашаем Вас совершить незабываемый полёт на Марс вместе со всемирно известными и горячо любимыми котом и мышонком! Выходит, что для своих погонь и проказ легендарные Том и Джерри уже использовали все возможные места на нашей старушке-Земле; и теперь забавные зверушки решают совершить вояж на Марс, чтобы повеселиться там от души! Вот, правда, марсиане оказались мелковаты: крошечные гуманоиды посчитали Тома свирепым галактическим монстром и решили расправиться с беднягой. Марс атакует! А в это время маленький хитрый Джерри был по ошибке признан возвратившимся после долгого отсутствия космическим вождем марсиан. Смогут ли мышонок и кот отложить на время свои разногласия, чтобы спасти Землю от инопланетного вторжения? Ведь для этого потребуются все девять жизней кота Тома!

Качество: DVDRip
Формат: MP4
Видео кодек: AVC
Аудио кодек: AAC
Видео: MPEG4 Video (H264) 368x272 23.98fps 512kbps
Аудио: AAC 44100Hz stereo 192Kbps



General
Complete name : D:\psp\Том и Джери - Приключения на марсе_2005_Vampire111.mp4
Format : MPEG-4
Format profile : Base Media
Codec ID : isom
File size : 377 MiB
Duration : 1h 14mn
Overall bit rate : 709 Kbps
Encoded date : UTC 2010-03-31 14:23:04
Tagged date : UTC 2010-03-31 14:23:04

Video
ID : 1
Format : AVC
Format/Info : Advanced Video Codec
Format profile : <a href="mailto:Main@L3.0" class="postLink">Main@L3.0</a>
Format settings, CABAC : Yes
Format settings, ReFrames : 3 frames
Codec ID : avc1
Codec ID/Info : Advanced Video Coding
Duration : 1h 14mn
Bit rate mode : Variable
Bit rate : 512 Kbps
Maximum bit rate : 2 253 Kbps
Width : 368 pixels
Height : 272 pixels
Display aspect ratio : 4:3
Frame rate mode : Constant
Frame rate : 23.976 fps
Resolution : 8 bits
Colorimetry : 4:2:0
Scan type : Progressive
Bits/(Pixel*Frame) : 0.213
Stream size : 273 MiB (72%)
Writing library : x264 core 56 svn-667M
Encoding settings : cabac=1 / ref=2 / deblock=1:0:0 / analyse=0x1:0x131 / me=umh / subme=6 / brdo=1 / mixed_ref=1 / me_range=16 / chroma_me=1 / trellis=1 / 8x8dct=0 / cqm=0 / deadzone=21,11 / chroma_qp_offset=0 / threads=2 / nr=0 / decimate=1 / mbaff=0 / bframes=3 / b_pyramid=0 / b_adapt=1 / b_bias=0 / direct=3 / wpredb=1 / bime=1 / keyint=250 / keyint_min=25 / scenecut=40(pre) / rc=2pass / bitrate=512 / ratetol=1.0 / rceq='blurCplx^(1-qComp)' / qcomp=0.60 / qpmin=10 / qpmax=51 / qpstep=4 / cplxblur=20.0 / qblur=0.5 / ip_ratio=1.40 / pb_ratio=1.30
Encoded date : UTC 2010-03-31 14:23:04
Tagged date : UTC 2010-03-31 14:24:26

Audio
ID : 2
Format : AAC
Format/Info : Advanced Audio Codec
Format version : Version 4
Format profile : LC
Format settings, SBR : No
Codec ID : 40
Duration : 1h 14mn
Bit rate mode : Variable
Bit rate : 192 Kbps
Maximum bit rate : 223 Kbps
Channel(s) : 2 channels
Channel positions : L R
Sampling rate : 44.1 KHz
Stream size : 103 MiB (27%)
Encoded date : UTC 2010-03-31 14:24:21
Tagged date : UTC 2010-03-31 14:24:26




Трекер:  [ 09-Июн-2012 09:20 ]

  

Скачать .torrent

Размер .torrent файла 15 KB


Размер: 377 MB
Хэш (hash) релиза: 6a5b6e2de8f3116492913556a0a3f651373c12d3
Подписка на обновления:

Еще никто не оставлял запись к записи скачать торрент [MULT4PSP] Том и Джерри: Полет на Марс Tom and Jerry Blast Off to Mars! . Будь первым!

!Обратная связь