Скачать через торрент Легенда о Костоломе Legend of the BoneKnapper Dragon Фильм бесплатно в хорошем качестве torrent

Скачивайте на UnionPeer.org фильмы через торрент без регистрации. Новинки кино в хорошем качестве через торрент. На UnionPeer.org можно скачать через торрент фильмы 2014 и 2015 годов. Самые новые фильмы.

Скачать торрент Легенда о Костоломе Legend of the BoneKnapper Dragon бесплатно через .torrent фильм мультфильм сериал

Если у вас наблюдаются проблемы со скриншотами, переходом по ссылками, скачиванием торрентов - проблемы в блокировщике рекламы AdBlock. #хорошегоДня!


Статистика раздачи
Размер:  76 MB   |    Зарегистрирован:  5 лет 5 месяцев   |    .torrent скачан:  37 раз   |   
Раздают:  1  
   
Загрузка...
 
Автор Сообщение

Galfimbul

avatar Galfimbul


Легенда о Костоломе/ Legend of the BoneKnapper Dragon

Оригинальное название: Legend of the BoneKnapper Dragon
Год выпуска: 2010 г.
Страна: США
Жанр: короткометражный мультфильм, приключения, фэнтези
Продолжительность: 0:16:33
Перевод:

Любительский (многоголосый закадровый) SkyeFilmTV

Cубтитры: нет
Режиссер: Джон Пуглиси / John Puglisi

Роли озвучивали: Джей Барушель, Джерард Батлер, Крэйг Фергюсон, Америка Феррера, Джона Хилл, ТиДжей Миллер, Кристофер Минц-Плассе, Кристен Уиг, Джон Ди Маджио, Кевин Майкл Ричардсон
Описание: Иккинг и юные Викинги отправляются в путешествие со своим наставником Плевакой, чтобы помочь ему победить своего заклятого врага — легендарного дракона Костолома.
Качество видео: BDRip
Формат: MP4
Видео кодек: H.264
Аудио кодек: AAC
Видео: 480x272 (16:9), 23.976 fps, x264 ~512 kbps avg, 0.164 bit/pixel
Аудио: AAC-LC VBR 2 channels, 48.0 KHz ~128 Kbps Любительский (многоголосый закадровый) SkyeFilmTV
General
Complete name : D:\Фильмы\PSP\Мультики\Legend of the BoneKnapper Dragon (2010)\Legend of the BoneKnapper Dragon (2010).mp4
Format : MPEG-4
Format profile : Base Media
Codec ID : isom
File size : 76.1 MiB
Duration : 16mn 33s
Overall bit rate mode : Variable
Overall bit rate : 643 Kbps
Encoded date : UTC 2012-04-28 14:12:14
Tagged date : UTC 2012-04-28 14:12:14
Writing application : Yamb 2.1.0.0

Video
ID : 1
Format : AVC
Format/Info : Advanced Video Codec
Format profile : <a href="mailto:Main@L3.0" class="postLink">Main@L3.0</a>
Format settings, CABAC : Yes
Format settings, ReFrames : 3 frames
Codec ID : avc1
Codec ID/Info : Advanced Video Coding
Duration : 16mn 33s
Bit rate : 512 Kbps
Maximum bit rate : 1 743 Kbps
Width : 480 pixels
Height : 272 pixels
Display aspect ratio : 16:9
Frame rate mode : Constant
Frame rate : 23.976 fps
Color space : YUV
Chroma subsampling : 4:2:0
Bit depth : 8 bits
Scan type : Progressive
Bits/(Pixel*Frame) : 0.164
Stream size : 60.6 MiB (80%)
Writing library : x264 core 120 r2164 da19765
Encoding settings : cabac=1 / ref=3 / deblock=1:0:0 / analyse=0x1:0x131 / me=umh / subme=9 / psy=1 / psy_rd=1.00:0.00 / mixed_ref=1 / me_range=16 / chroma_me=1 / trellis=2 / 8x8dct=0 / cqm=0 / deadzone=21,11 / fast_pskip=0 / chroma_qp_offset=-2 / threads=1 / sliced_threads=0 / nr=0 / decimate=0 / interlaced=0 / bluray_compat=0 / constrained_intra=0 / bframes=3 / b_pyramid=0 / b_adapt=2 / b_bias=0 / direct=3 / weightb=1 / open_gop=0 / weightp=1 / keyint=250 / keyint_min=23 / scenecut=40 / intra_refresh=0 / rc=2pass / mbtree=0 / bitrate=512 / ratetol=1.0 / qcomp=0.60 / qpmin=0 / qpmax=69 / qpstep=4 / cplxblur=20.0 / qblur=0.5 / ip_ratio=1.40 / pb_ratio=1.30 / aq=1:1.00
Encoded date : UTC 2012-04-28 04:50:33
Tagged date : UTC 2012-04-28 14:12:40

Audio
ID : 2
Format : AAC
Format/Info : Advanced Audio Codec
Format profile : LC
Codec ID : 40
Duration : 16mn 33s
Bit rate mode : Variable
Bit rate : 127 Kbps
Maximum bit rate : 156 Kbps
Channel(s) : 2 channels
Channel positions : Front: L R
Sampling rate : 48.0 KHz
Compression mode : Lossy
Stream size : 15.1 MiB (20%)
Encoded date : UTC 2012-04-28 14:12:38
Tagged date : UTC 2012-04-28 14:12:40
x264.exe: --pass 2 --bitrate 512 --preset medium --level 3.0 --direct auto --b-adapt 2 --b-pyramid none --weightp 1 --trellis 2 --no-fast-pskip --no-dct-decimate --partitions p8x8,b8x8,i4x4,p4x4 --no-8x8dct --subme 9 --me umh --no-mbtree --stats "D:\Temp\0059.log" --sar 1:1 --output "D:\Temp\0059.264" "D:\Temp\0059.avs"

avs [info]: 480x272p 1:1 @ 2500000/104271 fps (cfr)
x264 [info]: using SAR=1/1
x264 [info]: using cpu capabilities: MMX2 SSE2Slow SlowCTZ
x264 [info]: profile Main, level 3.0

x264 [info]: frame I:314 Avg QP:17.67 size: 17116
x264 [info]: frame P:10801 Avg QP:20.77 size: 3965
x264 [info]: frame B:12707 Avg QP:24.01 size: 1209
x264 [info]: consecutive B-frames: 10.2% 45.6% 31.5% 12.7%
x264 [info]: mb I I16..4: 21.2% 0.0% 78.8%
x264 [info]: mb P I16..4: 2.1% 0.0% 5.5% P16..4: 36.0% 13.8% 12.3% 2.1% 0.6% skip:27.4%
x264 [info]: mb B I16..4: 0.4% 0.0% 0.8% B16..8: 29.8% 7.9% 2.9% direct: 3.2% skip:55.0% L0:34.3% L1:51.5% BI:14.2%
x264 [info]: direct mvs spatial:63.3% temporal:36.7%
x264 [info]: coded y,uvDC,uvAC intra: 76.4% 67.1% 41.8% inter: 20.5% 10.9% 4.4%
x264 [info]: i16 v,h,dc,p: 31% 27% 12% 29%
x264 [info]: i4 v,h,dc,ddl,ddr,vr,hd,vl,hu: 8% 7% 7% 9% 14% 12% 14% 11% 16%
x264 [info]: i8c dc,h,v,p: 44% 26% 17% 13%
x264 [info]: Weighted P-Frames: Y:6.1% UV:2.6%
x264 [info]: ref P L0: 79.8% 11.9% 8.3%
x264 [info]: ref B L0: 85.5% 14.5%
x264 [info]: kb/s:511.76

x264 [total]: encoded 23822 frames, 5.86 fps, 511.76 kb/s


Трекер:  [ 09-Июн-2012 15:55 ]

  

Скачать .torrent

Размер .torrent файла 12 KB


Размер: 76 MB
Хэш (hash) релиза: b75d58d60a2d93e9ed002d7e652fa5850f290b56
Подписка на обновления:

Торренты, похожие на Легенда о Костоломе Legend of the BoneKnapper Dragon скачать торрент

Форум Название Автор Размер S L Добавлен
Мультфильмы до 2016 ·· Легенда о Костоломе / Legend of the BoneKnapper Dragon (Джон Пуглиси / John Puglisi) [2010, короткометражный анимационный фильм, BDRip 720p] DUB + MVO + DVO + VO + SUB (rus, ukr, eng) Galfimbul 824811507787 MB 0 0 1393572899

10:34

28-Фев-14

Мультфильмы до 2016 ·· Легенда о Костоломе / Legend of the BoneKnapper Dragon (Джон Пуглиси / John Puglisi) [2010, короткометражный анимационный фильм, BDRip] DUB + MVO + DVO + VO + SUB (rus, ukr, eng) Galfimbul 531575951507 MB 0 0 1379106128

00:02

14-Сен-13

Мультфильмы до 2016 ·· Легенда о Костоломе / Legend of the BoneKnapper Dragon (Джон Пуглиси / John Puglisi) [2010, короткометражный анимационный фильм, BDRip-AVC] DUB + MVO + DVO + VO + SUB (rus, ukr, eng) Galfimbul 608964458581 MB 0 0 1379106123

00:02

14-Сен-13

Мультфильмы до 2016 ·· Легенда о Костоломе / Legend of the BoneKnapper Dragon (Джон Пуглиси / John Puglisi) [2010 г., фэнтези, комедия, приключения, семейный, мультфильм, BDRemux, 1080p] Dub (Невафильм) + MVO (SkyeFilmTV) + DVO (NewStudio + Бяко Рекордс) + VO (zamez) Galfimbul 36289295573.38 GB 0 0 1362408671

17:51

4-Мар-13

Мультфильмы до 2016 ·· Драконы: Легенда о Костоломе; Подарок Ночной Фурии; Книга Драконов / Legend of the BoneKnapper Dragon; Gift of the Night Fury; Book of Dragons (Джон Пуглиси, Том Оуенс, Стив Хикнер / John Puglisi, Tom Owens, Steve Hickner)[2010-2011, мультфильм, DVB] Galfimbul 15284668841.42 GB 0 0 1361760667

05:51

25-Фев-13

Еще никто не оставлял запись к записи скачать торрент Легенда о Костоломе Legend of the BoneKnapper Dragon . Будь первым!

!Обратная связь