Скачать через торрент [MULT4PSP] Что с Энди? Whats with Andy? Фильм бесплатно в хорошем качестве torrent

Скачивайте на UnionPeer.org фильмы через торрент без регистрации. Новинки кино в хорошем качестве через торрент. На UnionPeer.org можно скачать через торрент фильмы 2014 и 2015 годов. Самые новые фильмы.

Скачать торрент [MULT4PSP] Что с Энди? Whats with Andy? бесплатно через .torrent фильм мультфильм сериал

Если у вас наблюдаются проблемы со скриншотами, переходом по ссылками, скачиванием торрентов - проблемы в блокировщике рекламы AdBlock. #хорошегоДня!


Статистика раздачи
Размер:  6.53 GB   |    Зарегистрирован:  5 лет 2 месяца   |    .torrent скачан:  84 раза   |   
Раздают:  1  
   
Загрузка...
 
Автор Сообщение

Galfimbul

avatar Galfimbul


Что с Энди?
Оригинальное Название: What's with Andy?

Год выпуска: 2001
Страна: Канада
Жанр: мультфильм
Количество сезонов: 3
Количество серий: 67
Продолжительность: ~22 мин
Перевод: Профессиональный (полное дублирование)
Режиссер: Andrew Makarewicz / Эндрю Макаревич, Robert Waldren / Роберт Валден

Роли озвучивали: Джессика Кардос/Jessica Kardos, Йен Джеймс Корлетт/Ian James Corlett, Дэниэл Брошу/Daniel Brochu, Жаклин Линетски/Jaclyn Linetsky
Описание: Мультсериал основан на книгах серии «Just» австралийского писателя Энди Гриффитса, однако большинство эпизодов придумали авторы сериала, и лишь некоторые рассказы удостоились экранизации.
Энди Ларкин устраивает хулиганские выходки в Ист-Гекле. Диапазон «жертв» проделок «гениального шутника», как Энди сам себя называет, широк: от почти каждого жителя городка до всего населения города. Его друг Дени Пикет постоянно помогает ему. Энди нравится одноклассница Лори Макни, которая тоже ему симпатизирует, но негативно относится к его розыгрышам. По сюжету у Энди с другом имеются и антагонисты — Лик и Лич, двое друзей со слабой интеллектуальной активностью, но значительной физической силой.
Шоу должно продолжаться
101 подштаники/Покойник на время
Великий рифмоплёт
Кулинарный поединок
Правила маскарада
Кто больше
Обезвредь бомбу
Очень плохая идея/Тараканы
Оно явилось из Ист Гекла
Рвотная приправа срочного употребления/Засада
Сумасшедшие выборы
Дорожное путешествие/Снежная работа
Талисман
Лучшие враги
Маленькая лапа/Дедуля рехнулся
У гнома каникулы
Королевское тайное общество зомби
Очень страшная история
Триумф шутника
Ответы
Весёлый хаос
Съешь это
Розыгрыши на спор
Сорвать маски с громил
Ловушка по-американски
Юные мечтатели
Что с Жаном Тома
Анонимный астролог
Музыкальная фасоль
Держать вес Энди
Фиаско с туалетной бумагой
Яблочные проделки
Мяч
Соревнования с приключениями
Игры разума
Сиделка Джен
Не ешьте желтый снег
Эндизавр Рекс
Школа танцев
Новая пара Ист Гекла
Свет...Камера...Упс!
Конкурент
Камень на льду
Пища для размышлений
Родео
Жизнь - это лотерея старина
Тайнственный ящик
Проделки Спенки
Дорогой папочка
Вечеринка
Праздничный наряд
Мистер Ист Гекл путешествует
Прикол во имя любви
Лучшие шутки Энди
Розыгрыши – это в крови
Не стреляйте в шутника
Ужасная Тери
Злополучная вечеринка
Убийство оленя
Шутки летают в воздухе
В расстроенных чувствах
Любит, не любит
Приколомания
На ферме
Студент по обмену
Папаша!
Сенсация
Ушастые звёзды
Озорной дух
Хорошая шутка дорогого стоит
Герой из под пола
Опасные шутки
Летние каникулы
Рождественский сюрприз
Шуткомания
Прикол которого небыло
Супер мама
Экзамен по розыгрышам

Рейтинг фильма
Imdb: 7.40 (229)
Качество: TVRip
Формат: MP4
Видео кодек: H.264
Аудио кодек: AAC
Видео: MPEG4 Video 368 x 272 512 Kbps 25.00 fps
Аудио: AAC 48 KHz stereo 128 Kbps
Video
ID : 1
Format : AVC
Format/Info : Advanced Video Codec
Format profile : <a href="mailto:Main@L3.0" class="postLink">Main@L3.0</a>
Format settings, CABAC : Yes
Format settings, ReFrames : 3 frames
Codec ID : avc1
Codec ID/Info : Advanced Video Coding
Duration : 20mn 52s
Bit rate mode : Variable
Bit rate : 512 Kbps
Maximum bit rate : 2 731 Kbps
Width : 368 pixels
Height : 272 pixels
Display aspect ratio : 4:3
Frame rate mode : Constant
Frame rate : 25.000 fps
Resolution : 8 bits
Colorimetry : 4:2:0
Scan type : Progressive
Bits/(Pixel*Frame) : 0.205
Stream size : 76.5 MiB (80%)
Title : Imported with GPAC 0.4.6-DEV (build 1)
Writing library : x264 core 92 r1510 33d382a
Encoding settings : cabac=1 / ref=3 / deblock=1:1:1 / analyse=0x1:0x131 / me=umh / subme=10 / psy=1 / psy_rd=1.00:0.00 / mixed_ref=1 / me_range=16 / chroma_me=1 / trellis=2 / 8x8dct=0 / cqm=0 / deadzone=21,11 / fast_pskip=0 / chroma_qp_offset=-2 / threads=3 / sliced_threads=0 / nr=0 / decimate=1 / interlaced=0 / constrained_intra=0 / bframes=3 / b_pyramid=0 / b_adapt=2 / b_bias=0 / direct=3 / wpredb=1 / wpredp=2 / keyint=250 / keyint_min=25 / scenecut=40 / intra_refresh=0 / rc_lookahead=60 / rc=2pass / mbtree=1 / bitrate=512 / ratetol=1.0 / qcomp=0.70 / qpmin=10 / qpmax=51 / qpstep=4 / cplxblur=20.0 / qblur=0.5 / ip_ratio=1.40 / aq=1:0.60
Encoded date : UTC 2011-03-10 14:52:24
Tagged date : UTC 2011-03-10 14:55:36

Audio
ID : 2
Format : AAC
Format/Info : Advanced Audio Codec
Format version : Version 4
Format profile : LC
Format settings, SBR : No
Codec ID : 40
Duration : 20mn 52s
Bit rate mode : Variable
Bit rate : 128 Kbps
Maximum bit rate : 154 Kbps
Channel(s) : 2 channels
Channel positions : Front: L R
Sampling rate : 48.0 KHz
Stream size : 19.1 MiB (20%)
Encoded date : UTC 2011-03-10 14:53:48
Tagged date : UTC 2011-03-10 14:55:36


Трекер:  [ 09-Июн-2012 15:55 ]

  

Скачать .torrent

Размер .torrent файла 39 KB


Размер: 6.53 GB
Хэш (hash) релиза: 35bf7266a998d53763c5b440a624c559e7f8f03a
Подписка на обновления:

Еще никто не оставлял запись к записи скачать торрент [MULT4PSP] Что с Энди? Whats with Andy? . Будь первым!

!Обратная связь