Скачать через торрент [MULT4PSP] Атлантида: Затерянный мир Atlantis: The Lost Empire Фильм бесплатно в хорошем качестве torrent

Скачивайте на UnionPeer.org фильмы через торрент без регистрации. Новинки кино в хорошем качестве через торрент. На UnionPeer.org можно скачать через торрент фильмы 2014 и 2015 годов. Самые новые фильмы.

Скачать торрент [MULT4PSP] Атлантида: Затерянный мир Atlantis: The Lost Empire бесплатно через .torrent фильм мультфильм сериал

Если у вас наблюдаются проблемы со скриншотами, переходом по ссылками, скачиванием торрентов - проблемы в блокировщике рекламы AdBlock. #хорошегоДня!


Статистика раздачи
Размер:  441 MB   |    Зарегистрирован:  5 лет 4 месяца   |    .torrent скачан:  52 раза   |   
Раздают:  1  
   
Загрузка...
 
Автор Сообщение

Galfimbul

avatar Galfimbul



Атлантида: Затерянный мир
Atlantis
Оригинальное название: Atlantis: The Lost Empire
Год выпуска: 2001
Страна: США
Студия: ''Walt Disney Pictures / Walt Disney Feature Animation / Toon City Inc.''
Жанр: фантастика, приключения, семейный, мультфильм
Продолжительность: 96 мин (01:35:40)
Перевод: профессиональный, полное дублирование
Режиссер: Гари Труздейл, Кирк Уайз
Сценарий: Тэб Мёрфи, Платон, Дэвид Рейнольдс
Оригинальные голоса: Майкл Дж. Фокс, Кори Бертон, Клаудия Кристиан, Джеймс Гарнер, Джон Махони, Фил Моррис
Роли дублировали: Андрей Матвеев, Игорь Шибанов, Ирина Коновалова, Николай Буров, Марк Макаренков
Описание: Атлантида… Мечтою найти легендарный затонувший в пучинах океана остров грезили многие смельчаки. Но только юному картографу Майло Тэтчу повезло: в 1914 году в его руки попал таинственный дневник, указывающий путь к Затерянной империи. И вот уже самая могучая подводная лодка в мире под командованием неустрашимого капитана Рурка выходит в открытый океан.

Майло и его спутников ждет множество незабываемых приключений, превосходящих все похождения капитана Немо: схватка с морским чудовищем, древние загадки, буйство стихий, мистические силы и даже встреча с цивилизацией атлантов! И это лишь малая толика того, что ждет героев на их пути к тайнам великой Атлантиды.

Тех. информация:

Качество: HDTVRip[/b]
Формат: MP4
Кодек видео: x.264
Кодек аудио: AAC
Видео: 480x208 (2.35:1), 23.976 fps, x.264 ~512 kbps avg, 0.214 bit/pixel
Аудио: Russian 48 kHz, AAC-LC, 2/0 (L,R) ch, ABR, ~128 kbps
General
Complete name : E:\Ripped_PSP\Атлантида. Затерянный мир (Atlantis. The Lost Empire, 2001) HDTVRip.mp4
Format : MPEG-4
Format profile : Base Media
Codec ID : isom
File size : 441 MiB
Duration : 1h 35mn
Overall bit rate : 644 Kbps
Encoding by: Gambit
Encoded date : UTC 2011-04-11 19:38:06
Tagged date : UTC 2011-04-11 19:38:06

Video
ID : 1
Format : AVC
Format/Info : Advanced Video Codec
Format profile : <a href="mailto:Main@L3.0" class="postLink">Main@L3.0</a>
Format settings, CABAC : Yes
Format settings, ReFrames : 3 frames
Codec ID : avc1
Codec ID/Info : Advanced Video Coding
Duration : 1h 35mn
Bit rate mode : Variable
Bit rate : 512 Kbps
Maximum bit rate : 4 475 Kbps
Width : 480 pixels
Height : 208 pixels
Display aspect ratio : 2.35:1
Frame rate mode : Constant
Frame rate : 23.976 fps
Color space : YUV
Chroma subsampling : 4:2:0
Bit depth : 8 bits
Scan type : Progressive
Bits/(Pixel*Frame) : 0.214
Stream size : 350 MiB (80%)
Title : Imported with GPAC 0.4.6-DEV (internal rev. 7)
Writing library : x264 core 108 r1790 8eaf8a6
Encoding settings : cabac=1 / ref=3 / deblock=1:1:1 / analyse=0x1:0x131 / me=umh / subme=7 / psy=1 / psy_rd=0.40:0.00 / mixed_ref=1 / me_range=16 / chroma_me=1 / trellis=2 / 8x8dct=0 / cqm=0 / deadzone=21,11 / fast_pskip=0 / chroma_qp_offset=-2 / threads=1 / sliced_threads=0 / nr=0 / decimate=0 / interlaced=0 / constrained_intra=0 / bframes=3 / b_pyramid=0 / b_adapt=2 / b_bias=0 / direct=3 / weightb=1 / open_gop=0 / weightp=2 / keyint=250 / keyint_min=23 / scenecut=40 / intra_refresh=0 / rc_lookahead=60 / rc=2pass / mbtree=1 / bitrate=512 / ratetol=1.0 / qcomp=0.80 / qpmin=10 / qpmax=51 / qpstep=4 / cplxblur=20.0 / qblur=0.5 / ip_ratio=1.40 / aq=1:0.60
Encoded date : UTC 2011-04-11 19:38:06
Tagged date : UTC 2011-04-11 19:38:56

Audio
ID : 2
Format : AAC
Format/Info : Advanced Audio Codec
Format profile : LC
Codec ID : 40
Duration : 1h 35mn
Bit rate mode : Variable
Bit rate : 128 Kbps
Maximum bit rate : 232 Kbps
Channel(s) : 2 channels
Channel positions : Front: L R
Sampling rate : 48.0 KHz
Compression mode : Lossy
Stream size : 87.6 MiB (20%)
Encoded date : UTC 2011-04-11 19:38:49
Tagged date : UTC 2011-04-11 19:38:56


Трекер:  [ 11-Июн-2012 18:25 ]

  

Скачать .torrent

Размер .torrent файла 17 KB


Размер: 441 MB
Хэш (hash) релиза: 1f95279c761465b6d81133219295fbe66e6c05ff
Подписка на обновления:

Еще никто не оставлял запись к записи скачать торрент [MULT4PSP] Атлантида: Затерянный мир Atlantis: The Lost Empire . Будь первым!

!Обратная связь