Скачать через торрент [MULT] Мультачки: Байки Мэтра Cars Toon: Maters Tall Tales Фильм бесплатно в хорошем качестве torrent

Скачивайте на UnionPeer.org фильмы через торрент без регистрации. Новинки кино в хорошем качестве через торрент. На UnionPeer.org можно скачать через торрент фильмы 2014 и 2015 годов. Самые новые фильмы.

Скачать торрент [MULT] Мультачки: Байки Мэтра Cars Toon: Maters Tall Tales бесплатно через .torrent фильм мультфильм сериал

Если у вас наблюдаются проблемы со скриншотами, переходом по ссылками, скачиванием торрентов - проблемы в блокировщике рекламы AdBlock. #хорошегоДня!


Статистика раздачи
Размер:  233 MB   |    Зарегистрирован:  5 лет 5 месяцев   |    .torrent скачан:  87 раз   |   
Раздают:  1  
   
Загрузка...
 
Автор Сообщение

Galfimbul

avatar Galfimbul


Мультачки: Байки Мэтра
Оригинальное название: Cars Toon: Mater's Tall Tales
Год выпуска: 2008
Страна: США
Жанр: Анимация, приключения, семейный
Общая продолжительность: 00:50:53
Перевод: Профессиональный (полное дублирование)
Режиссер: Роб Гиббс, Джон Лассетер, Виктор Нейвон
В главных ролях: Ларри Кейбл Гай, Кейт Фергюсон, Ллойд Шерр, Джош Кули
Роли дублировали: Майя Блинова, Сергей Кузнецов, Станислав Концевич, Андрей Лёвин
Описание:
Главный герой этих историй, друг гонщика Молнии МакКвин — грузовичок «Мэтр» из городка Радиатор-Спрингс. В своих рассказах он предстаёт перед зрителем в неповторимых образах лихого спасателя, дипломированного доктора, расскажет о том как он был звездой каскадерского авто-шоу, и победителем среди стритрейсеров на автогонках в Токио. Мэтр выдумывает нереальные истории, в которые то и дело втягивает своего товарища МакКвина. При этом Молнии далеко не всегда в историях Метра достаются удачные роли…
Качество: HDRip
Формат: MP4
Видео кодек: H.264
Аудио кодек: AAC
Видео: MP4 (H.264), 480*272, ~23,976 fps, ~ 512 Кбит/сек
Аудио: AAC, stereo, ~128 Кбит/сек, 48,0 КГц
Мэтр Каскадёр (Mater the Greater) (00:03:53)
Мэтр - Команда Спасения (Rescue Squad Mater) (00:02:53)
Мэтр Великий Рестлер (Monster Truck Mater) (00:04:18)
Неопознанный Летающий Мэтр (Unidentified Flying Mater) (00:04:18)
Эль Мэтрдор (El Materdor) (00:03:38)
Мэтр На Луне (Moon Mater) (00:04:08)
Мэтр Металлист (Heavy Metal Mater) (00:03:34)
Детектив Мэтр (Mater Private Eye) (00:04:38)
Токио Мэтр (Tokyo Mater) (00:06:56)
Мэтр и Призрачный (Свет Mater and the Ghostlight) (00:07:09)
Аэро-Мэтр (Air Mater) (00:05:25)
Серия "Мэтр и Призрачный Свет" не относится к "Байкам Мэтра", тем не менее она рассказывает короткую историю про этого персонажа.
Общее
Полное имя : E:\Мультфильмы\Cars Toon\01. Мэтр Каскадёр_Mater the Greater.mp4
Формат : MPEG-4
Профиль формата : Base Media / Version 2
Идентификатор кодека : mp42
Размер файла : 17,8 Мбайт
Продолжительность : 3 м. 53 с.
Общий поток : 640 Кбит/сек
Дата кодирования : UTC 2011-06-26 11:37:16
Дата пометки : UTC 2011-06-26 11:37:17
Программа кодирования : mp4creator 1.4.4

Видео
Идентификатор : 1
Формат : AVC
Формат/Информация : Advanced Video Codec
Профиль формата : <a href="mailto:Baseline@L1.3" class="postLink">Baseline@L1.3</a>
Параметр CABAC формата : Нет
Параметр ReFrames формата : 2 кадра
Идентификатор кодека : avc1
Идентификатор кодека/Информация : Advanced Video Coding
Продолжительность : 3 м. 53 с.
Вид битрейта : Переменный
Битрейт : 513 Кбит/сек
Ширина : 480 пикс.
Высота : 272 пикс.
Соотношение сторон : 16:9
Режим частоты кадров : Переменный
Частота кадров : 23,976 кадр/сек
Минимальная частота кадров : 23,974 кадр/сек
Максимальная частота кадров : 23,981 кадр/сек
Цветовое пространство : YUV
Подвыборка цветности : 4:2:0
Битовая глубина : 8 бит
Тип развёртки : Прогрессивная
Бит/(Пиксели*Кадры) : 0.164
Размер потока : 14,2 Мбайт (80%)
Язык : English
Дата кодирования : UTC 2011-06-26 11:37:16
Дата пометки : UTC 2011-06-26 11:37:17

Аудио
Идентификатор : 2
Формат : AAC
Формат/Информация : Advanced Audio Codec
Профиль формата : LC
Идентификатор кодека : 40
Продолжительность : 3 м. 53 с.
Вид битрейта : Переменный
Битрейт : 124 Кбит/сек
Максимальный битрейт : 235 Кбит/сек
Каналы : 2 канала
Расположение каналов : Front: L R
Частота : 48,0 КГц
Метод сжатия : С потерями
Размер потока : 3,45 Мбайт (19%)
Язык : English
Дата кодирования : UTC 2011-06-26 11:37:17
Дата пометки : UTC 2011-06-26 11:37:17
Общее
Полное имя : E:\Мультфильмы\Cars Toon\02. Мэтр - Команда Спасения_Rescue Squad Mater.mp4
Формат : MPEG-4
Профиль формата : Base Media / Version 2
Идентификатор кодека : mp42
Размер файла : 13,2 Мбайт
Продолжительность : 2 м. 53 с.
Общий поток : 639 Кбит/сек
Дата кодирования : UTC 2011-06-26 11:51:47
Дата пометки : UTC 2011-06-26 11:51:48
Программа кодирования : mp4creator 1.4.4

Видео
Идентификатор : 1
Формат : AVC
Формат/Информация : Advanced Video Codec
Профиль формата : <a href="mailto:Baseline@L1.3" class="postLink">Baseline@L1.3</a>
Параметр CABAC формата : Нет
Параметр ReFrames формата : 2 кадра
Идентификатор кодека : avc1
Идентификатор кодека/Информация : Advanced Video Coding
Продолжительность : 2 м. 53 с.
Вид битрейта : Переменный
Битрейт : 513 Кбит/сек
Ширина : 480 пикс.
Высота : 272 пикс.
Соотношение сторон : 16:9
Режим частоты кадров : Переменный
Частота кадров : 23,976 кадр/сек
Минимальная частота кадров : 23,974 кадр/сек
Максимальная частота кадров : 23,981 кадр/сек
Цветовое пространство : YUV
Подвыборка цветности : 4:2:0
Битовая глубина : 8 бит
Тип развёртки : Прогрессивная
Бит/(Пиксели*Кадры) : 0.164
Размер потока : 10,6 Мбайт (80%)
Язык : English
Дата кодирования : UTC 2011-06-26 11:51:47
Дата пометки : UTC 2011-06-26 11:51:48

Аудио
Идентификатор : 2
Формат : AAC
Формат/Информация : Advanced Audio Codec
Профиль формата : LC
Идентификатор кодека : 40
Продолжительность : 2 м. 53 с.
Вид битрейта : Переменный
Битрейт : 123 Кбит/сек
Максимальный битрейт : 224 Кбит/сек
Каналы : 2 канала
Расположение каналов : Front: L R
Частота : 48,0 КГц
Метод сжатия : С потерями
Размер потока : 2,55 Мбайт (19%)
Язык : English
Дата кодирования : UTC 2011-06-26 11:51:48
Дата пометки : UTC 2011-06-26 11:51:48
Общее
Полное имя : E:\Мультфильмы\Cars Toon\03. Мэтр Великий Рестлер_Monster Truck Mater.mp4
Формат : MPEG-4
Профиль формата : Base Media / Version 2
Идентификатор кодека : mp42
Размер файла : 19,7 Мбайт
Продолжительность : 4 м. 18 с.
Общий поток : 640 Кбит/сек
Дата кодирования : UTC 2011-06-26 11:53:41
Дата пометки : UTC 2011-06-26 11:53:44
Программа кодирования : mp4creator 1.4.4

Видео
Идентификатор : 1
Формат : AVC
Формат/Информация : Advanced Video Codec
Профиль формата : <a href="mailto:Baseline@L1.3" class="postLink">Baseline@L1.3</a>
Параметр CABAC формата : Нет
Параметр ReFrames формата : 2 кадра
Идентификатор кодека : avc1
Идентификатор кодека/Информация : Advanced Video Coding
Продолжительность : 4 м. 18 с.
Вид битрейта : Переменный
Битрейт : 513 Кбит/сек
Ширина : 480 пикс.
Высота : 272 пикс.
Соотношение сторон : 16:9
Режим частоты кадров : Переменный
Частота кадров : 23,976 кадр/сек
Минимальная частота кадров : 23,974 кадр/сек
Максимальная частота кадров : 23,981 кадр/сек
Цветовое пространство : YUV
Подвыборка цветности : 4:2:0
Битовая глубина : 8 бит
Тип развёртки : Прогрессивная
Бит/(Пиксели*Кадры) : 0.164
Размер потока : 15,8 Мбайт (80%)
Язык : English
Дата кодирования : UTC 2011-06-26 11:53:41
Дата пометки : UTC 2011-06-26 11:53:42

Аудио
Идентификатор : 2
Формат : AAC
Формат/Информация : Advanced Audio Codec
Профиль формата : LC
Идентификатор кодека : 40
Продолжительность : 4 м. 18 с.
Вид битрейта : Переменный
Битрейт : 124 Кбит/сек
Максимальный битрейт : 231 Кбит/сек
Каналы : 2 канала
Расположение каналов : Front: L R
Частота : 48,0 КГц
Метод сжатия : С потерями
Размер потока : 3,82 Мбайт (19%)
Язык : English
Дата кодирования : UTC 2011-06-26 11:53:44
Дата пометки : UTC 2011-06-26 11:53:44
Общее
Полное имя : E:\Мультфильмы\Cars Toon\04. Неопознанный Летающий Мэтр_Unidentified Flying Mater.mp4
Формат : MPEG-4
Профиль формата : Base Media / Version 2
Идентификатор кодека : mp42
Размер файла : 19,7 Мбайт
Продолжительность : 4 м. 18 с.
Общий поток : 639 Кбит/сек
Дата кодирования : UTC 2011-06-26 11:55:15
Дата пометки : UTC 2011-06-26 11:55:15
Программа кодирования : mp4creator 1.4.4

Видео
Идентификатор : 1
Формат : AVC
Формат/Информация : Advanced Video Codec
Профиль формата : <a href="mailto:Baseline@L1.3" class="postLink">Baseline@L1.3</a>
Параметр CABAC формата : Нет
Параметр ReFrames формата : 2 кадра
Идентификатор кодека : avc1
Идентификатор кодека/Информация : Advanced Video Coding
Продолжительность : 4 м. 18 с.
Вид битрейта : Переменный
Битрейт : 512 Кбит/сек
Ширина : 480 пикс.
Высота : 272 пикс.
Соотношение сторон : 16:9
Режим частоты кадров : Переменный
Частота кадров : 23,976 кадр/сек
Минимальная частота кадров : 23,974 кадр/сек
Максимальная частота кадров : 23,981 кадр/сек
Цветовое пространство : YUV
Подвыборка цветности : 4:2:0
Битовая глубина : 8 бит
Тип развёртки : Прогрессивная
Бит/(Пиксели*Кадры) : 0.164
Размер потока : 15,8 Мбайт (80%)
Язык : English
Дата кодирования : UTC 2011-06-26 11:55:15
Дата пометки : UTC 2011-06-26 11:55:15

Аудио
Идентификатор : 2
Формат : AAC
Формат/Информация : Advanced Audio Codec
Профиль формата : LC
Идентификатор кодека : 40
Продолжительность : 4 м. 18 с.
Вид битрейта : Переменный
Битрейт : 124 Кбит/сек
Максимальный битрейт : 231 Кбит/сек
Каналы : 2 канала
Расположение каналов : Front: L R
Частота : 48,0 КГц
Метод сжатия : С потерями
Размер потока : 3,81 Мбайт (19%)
Язык : English
Дата кодирования : UTC 2011-06-26 11:55:15
Дата пометки : UTC 2011-06-26 11:55:15
Общее
Полное имя : E:\Мультфильмы\Cars Toon\05. Эль Мэтрдор_El Materdor.mp4
Формат : MPEG-4
Профиль формата : Base Media / Version 2
Идентификатор кодека : mp42
Размер файла : 16,6 Мбайт
Продолжительность : 3 м. 38 с.
Общий поток : 638 Кбит/сек
Дата кодирования : UTC 2011-06-26 11:56:28
Дата пометки : UTC 2011-06-26 11:56:28
Программа кодирования : mp4creator 1.4.4

Видео
Идентификатор : 1
Формат : AVC
Формат/Информация : Advanced Video Codec
Профиль формата : <a href="mailto:Baseline@L1.3" class="postLink">Baseline@L1.3</a>
Параметр CABAC формата : Нет
Параметр ReFrames формата : 2 кадра
Идентификатор кодека : avc1
Идентификатор кодека/Информация : Advanced Video Coding
Продолжительность : 3 м. 38 с.
Вид битрейта : Переменный
Битрейт : 512 Кбит/сек
Ширина : 480 пикс.
Высота : 272 пикс.
Соотношение сторон : 16:9
Режим частоты кадров : Переменный
Частота кадров : 23,976 кадр/сек
Минимальная частота кадров : 23,974 кадр/сек
Максимальная частота кадров : 23,981 кадр/сек
Цветовое пространство : YUV
Подвыборка цветности : 4:2:0
Битовая глубина : 8 бит
Тип развёртки : Прогрессивная
Бит/(Пиксели*Кадры) : 0.164
Размер потока : 13,3 Мбайт (80%)
Язык : English
Дата кодирования : UTC 2011-06-26 11:56:28
Дата пометки : UTC 2011-06-26 11:56:28

Аудио
Идентификатор : 2
Формат : AAC
Формат/Информация : Advanced Audio Codec
Профиль формата : LC
Идентификатор кодека : 40
Продолжительность : 3 м. 38 с.
Вид битрейта : Переменный
Битрейт : 124 Кбит/сек
Максимальный битрейт : 222 Кбит/сек
Каналы : 2 канала
Расположение каналов : Front: L R
Частота : 48,0 КГц
Метод сжатия : С потерями
Размер потока : 3,22 Мбайт (19%)
Язык : English
Дата кодирования : UTC 2011-06-26 11:56:28
Дата пометки : UTC 2011-06-26 11:56:28
Общее
Полное имя : E:\Мультфильмы\Cars Toon\06. Мэтр На Луне_Moon Mater.mp4
Формат : MPEG-4
Профиль формата : Base Media / Version 2
Идентификатор кодека : mp42
Размер файла : 18,9 Мбайт
Продолжительность : 4 м. 8 с.
Общий поток : 640 Кбит/сек
Дата кодирования : UTC 2011-06-26 11:57:45
Дата пометки : UTC 2011-06-26 11:57:46
Программа кодирования : mp4creator 1.4.4

Видео
Идентификатор : 1
Формат : AVC
Формат/Информация : Advanced Video Codec
Профиль формата : <a href="mailto:Baseline@L1.3" class="postLink">Baseline@L1.3</a>
Параметр CABAC формата : Нет
Параметр ReFrames формата : 2 кадра
Идентификатор кодека : avc1
Идентификатор кодека/Информация : Advanced Video Coding
Продолжительность : 4 м. 8 с.
Вид битрейта : Переменный
Битрейт : 513 Кбит/сек
Ширина : 480 пикс.
Высота : 272 пикс.
Соотношение сторон : 16:9
Режим частоты кадров : Переменный
Частота кадров : 23,976 кадр/сек
Минимальная частота кадров : 23,974 кадр/сек
Максимальная частота кадров : 23,981 кадр/сек
Цветовое пространство : YUV
Подвыборка цветности : 4:2:0
Битовая глубина : 8 бит
Тип развёртки : Прогрессивная
Бит/(Пиксели*Кадры) : 0.164
Размер потока : 15,2 Мбайт (80%)
Язык : English
Дата кодирования : UTC 2011-06-26 11:57:45
Дата пометки : UTC 2011-06-26 11:57:46

Аудио
Идентификатор : 2
Формат : AAC
Формат/Информация : Advanced Audio Codec
Профиль формата : LC
Идентификатор кодека : 40
Продолжительность : 4 м. 8 с.
Вид битрейта : Переменный
Битрейт : 124 Кбит/сек
Максимальный битрейт : 227 Кбит/сек
Каналы : 2 канала
Расположение каналов : Front: L R
Частота : 48,0 КГц
Метод сжатия : С потерями
Размер потока : 3,66 Мбайт (19%)
Язык : English
Дата кодирования : UTC 2011-06-26 11:57:46
Дата пометки : UTC 2011-06-26 11:57:46
Общее
Полное имя : E:\Мультфильмы\Cars Toon\07. Мэтр Металлист_Heavy Metal Mater.mp4
Формат : MPEG-4
Профиль формата : Base Media / Version 2
Идентификатор кодека : mp42
Размер файла : 16,4 Мбайт
Продолжительность : 3 м. 34 с.
Общий поток : 643 Кбит/сек
Дата кодирования : UTC 2011-06-26 11:59:03
Дата пометки : UTC 2011-06-26 11:59:04
Программа кодирования : mp4creator 1.4.4

Видео
Идентификатор : 1
Формат : AVC
Формат/Информация : Advanced Video Codec
Профиль формата : <a href="mailto:Baseline@L1.3" class="postLink">Baseline@L1.3</a>
Параметр CABAC формата : Нет
Параметр ReFrames формата : 2 кадра
Идентификатор кодека : avc1
Идентификатор кодека/Информация : Advanced Video Coding
Продолжительность : 3 м. 34 с.
Вид битрейта : Переменный
Битрейт : 514 Кбит/сек
Ширина : 480 пикс.
Высота : 272 пикс.
Соотношение сторон : 16:9
Режим частоты кадров : Переменный
Частота кадров : 23,976 кадр/сек
Минимальная частота кадров : 23,974 кадр/сек
Максимальная частота кадров : 23,981 кадр/сек
Цветовое пространство : YUV
Подвыборка цветности : 4:2:0
Битовая глубина : 8 бит
Тип развёртки : Прогрессивная
Бит/(Пиксели*Кадры) : 0.164
Размер потока : 13,1 Мбайт (80%)
Язык : English
Дата кодирования : UTC 2011-06-26 11:59:03
Дата пометки : UTC 2011-06-26 11:59:04

Аудио
Идентификатор : 2
Формат : AAC
Формат/Информация : Advanced Audio Codec
Профиль формата : LC
Идентификатор кодека : 40
Продолжительность : 3 м. 34 с.
Вид битрейта : Переменный
Битрейт : 126 Кбит/сек
Максимальный битрейт : 232 Кбит/сек
Каналы : 2 канала
Расположение каналов : Front: L R
Частота : 48,0 КГц
Метод сжатия : С потерями
Размер потока : 3,20 Мбайт (20%)
Язык : English
Дата кодирования : UTC 2011-06-26 11:59:04
Дата пометки : UTC 2011-06-26 11:59:04
Общее
Полное имя : E:\Мультфильмы\Cars Toon\08. Детектив Мэтр_Mater Private Eye.mp4
Формат : MPEG-4
Профиль формата : Base Media / Version 2
Идентификатор кодека : mp42
Размер файла : 21,2 Мбайт
Продолжительность : 4 м. 38 с.
Общий поток : 638 Кбит/сек
Дата кодирования : UTC 2011-06-26 12:00:26
Дата пометки : UTC 2011-06-26 12:00:28
Программа кодирования : mp4creator 1.4.4

Видео
Идентификатор : 1
Формат : AVC
Формат/Информация : Advanced Video Codec
Профиль формата : <a href="mailto:Baseline@L1.3" class="postLink">Baseline@L1.3</a>
Параметр CABAC формата : Нет
Параметр ReFrames формата : 2 кадра
Идентификатор кодека : avc1
Идентификатор кодека/Информация : Advanced Video Coding
Продолжительность : 4 м. 38 с.
Вид битрейта : Переменный
Битрейт : 511 Кбит/сек
Ширина : 480 пикс.
Высота : 272 пикс.
Соотношение сторон : 16:9
Режим частоты кадров : Переменный
Частота кадров : 23,976 кадр/сек
Минимальная частота кадров : 23,974 кадр/сек
Максимальная частота кадров : 23,981 кадр/сек
Цветовое пространство : YUV
Подвыборка цветности : 4:2:0
Битовая глубина : 8 бит
Тип развёртки : Прогрессивная
Бит/(Пиксели*Кадры) : 0.163
Размер потока : 16,9 Мбайт (80%)
Язык : English
Дата кодирования : UTC 2011-06-26 12:00:26
Дата пометки : UTC 2011-06-26 12:00:26

Аудио
Идентификатор : 2
Формат : AAC
Формат/Информация : Advanced Audio Codec
Профиль формата : LC
Идентификатор кодека : 40
Продолжительность : 4 м. 38 с.
Вид битрейта : Переменный
Битрейт : 124 Кбит/сек
Максимальный битрейт : 230 Кбит/сек
Каналы : 2 канала
Расположение каналов : Front: L R
Частота : 48,0 КГц
Метод сжатия : С потерями
Размер потока : 4,11 Мбайт (19%)
Язык : English
Дата кодирования : UTC 2011-06-26 12:00:28
Дата пометки : UTC 2011-06-26 12:00:28
Общее
Полное имя : E:\Мультфильмы\Cars Toon\09. Токио Мэтр_Tokyo Mater.mp4
Формат : MPEG-4
Профиль формата : Base Media / Version 2
Идентификатор кодека : mp42
Размер файла : 31,8 Мбайт
Продолжительность : 6 м. 56 с.
Общий поток : 642 Кбит/сек
Дата кодирования : UTC 2011-06-26 11:48:18
Дата пометки : UTC 2011-06-26 11:48:21
Программа кодирования : mp4creator 1.4.4

Видео
Идентификатор : 1
Формат : AVC
Формат/Информация : Advanced Video Codec
Профиль формата : <a href="mailto:Baseline@L1.3" class="postLink">Baseline@L1.3</a>
Параметр CABAC формата : Нет
Параметр ReFrames формата : 2 кадра
Идентификатор кодека : avc1
Идентификатор кодека/Информация : Advanced Video Coding
Продолжительность : 6 м. 56 с.
Вид битрейта : Переменный
Битрейт : 512 Кбит/сек
Ширина : 480 пикс.
Высота : 272 пикс.
Соотношение сторон : 16:9
Режим частоты кадров : Переменный
Частота кадров : 23,976 кадр/сек
Минимальная частота кадров : 23,974 кадр/сек
Максимальная частота кадров : 23,981 кадр/сек
Цветовое пространство : YUV
Подвыборка цветности : 4:2:0
Битовая глубина : 8 бит
Тип развёртки : Прогрессивная
Бит/(Пиксели*Кадры) : 0.164
Размер потока : 25,4 Мбайт (80%)
Язык : English
Дата кодирования : UTC 2011-06-26 11:48:18
Дата пометки : UTC 2011-06-26 11:48:18

Аудио
Идентификатор : 2
Формат : AAC
Формат/Информация : Advanced Audio Codec
Профиль формата : LC
Идентификатор кодека : 40
Продолжительность : 6 м. 56 с.
Вид битрейта : Переменный
Битрейт : 127 Кбит/сек
Максимальный битрейт : 222 Кбит/сек
Каналы : 2 канала
Расположение каналов : Front: L R
Частота : 48,0 КГц
Метод сжатия : С потерями
Размер потока : 6,28 Мбайт (20%)
Язык : English
Дата кодирования : UTC 2011-06-26 11:48:20
Дата пометки : UTC 2011-06-26 11:48:21
Общее
Полное имя : E:\Мультфильмы\Cars Toon\10. Мэтр и Призрачный Свет_Mater and the Ghostlight.mp4
Формат : MPEG-4
Профиль формата : Base Media / Version 2
Идентификатор кодека : mp42
Размер файла : 32,7 Мбайт
Продолжительность : 7 м. 9 с.
Общий поток : 639 Кбит/сек
Дата кодирования : UTC 2011-06-26 11:50:38
Дата пометки : UTC 2011-06-26 11:50:40
Программа кодирования : mp4creator 1.4.4

Видео
Идентификатор : 1
Формат : AVC
Формат/Информация : Advanced Video Codec
Профиль формата : <a href="mailto:Baseline@L1.3" class="postLink">Baseline@L1.3</a>
Параметр CABAC формата : Нет
Параметр ReFrames формата : 2 кадра
Идентификатор кодека : avc1
Идентификатор кодека/Информация : Advanced Video Coding
Продолжительность : 7 м. 9 с.
Вид битрейта : Переменный
Битрейт : 511 Кбит/сек
Ширина : 480 пикс.
Высота : 272 пикс.
Соотношение сторон : 16:9
Режим частоты кадров : Переменный
Частота кадров : 23,976 кадр/сек
Минимальная частота кадров : 23,974 кадр/сек
Максимальная частота кадров : 23,981 кадр/сек
Цветовое пространство : YUV
Подвыборка цветности : 4:2:0
Битовая глубина : 8 бит
Тип развёртки : Прогрессивная
Бит/(Пиксели*Кадры) : 0.163
Размер потока : 26,2 Мбайт (80%)
Язык : English
Дата кодирования : UTC 2011-06-26 11:50:38
Дата пометки : UTC 2011-06-26 11:50:40

Аудио
Идентификатор : 2
Формат : AAC
Формат/Информация : Advanced Audio Codec
Профиль формата : LC
Идентификатор кодека : 40
Продолжительность : 7 м. 8 с.
Вид битрейта : Переменный
Битрейт : 125 Кбит/сек
Максимальный битрейт : 208 Кбит/сек
Каналы : 2 канала
Расположение каналов : Front: L R
Частота : 48,0 КГц
Метод сжатия : С потерями
Размер потока : 6,39 Мбайт (20%)
Язык : English
Дата кодирования : UTC 2011-06-26 11:50:40
Дата пометки : UTC 2011-06-26 11:50:40


Трекер:  [ 11-Июн-2012 18:24 ]

  

Скачать .torrent

Размер .torrent файла 20 KB


Размер: 233 MB
Хэш (hash) релиза: 686a83b4e944b47a5567b771e4bf37e98659ef64
Подписка на обновления:

Еще никто не оставлял запись к записи скачать торрент [MULT] Мультачки: Байки Мэтра Cars Toon: Maters Tall Tales . Будь первым!

!Обратная связь