Скачать через торрент [MULT] Падал прошлогодний снег Фильм бесплатно в хорошем качестве torrent

Скачивайте на UnionPeer.org фильмы через торрент без регистрации. Новинки кино в хорошем качестве через торрент. На UnionPeer.org можно скачать через торрент фильмы 2014 и 2015 годов. Самые новые фильмы.

Скачать торрент [MULT] Падал прошлогодний снег бесплатно через .torrent фильм мультфильм сериал

Если у вас наблюдаются проблемы со скриншотами, переходом по ссылками, скачиванием торрентов - проблемы в блокировщике рекламы AdBlock. #хорошегоДня!


Статистика раздачи
Размер:  91 MB   |    Зарегистрирован:  5 лет 2 месяца   |    .torrent скачан:  57 раз   |   
Раздают:  1  
   
Загрузка...
 
Автор Сообщение

Galfimbul

avatar Galfimbul


«Падал прошлогодний снег»

Год выпуска: 1983 г.
Страна: СССР
Жанр: комедия
Продолжительность: 00:19:51
Режиссер: Александр Татарский
В ролях: Станислав Садальский

Описание:
Наверное, самый известный и любимый в нашей стране пластилиновый мультфильм под чутким управлением Александра Татарского, с задушевным аккомпанементом Григория Гладкова и голоса Станислава Садальского, заставляющего и сегодня раздирать текст на цитаты. Как-то раз я посмотрел его 15 раз подряд и теперь думаю, что это было намного удобнее сделать, будь он с собой на переносной консоли.


Качество видео: DVDRip
Формат: MP4
Видео кодек: H.264
Аудио кодек: AAC
Видео: x264, 368x272, 25fps, 512kbps (3-pass)
Аудио: aac-lc, 128kbps, 2ch, 48kHz
General
Complete name : C:\torrents\!others\vospi\padal-proshlogodniy-sneg-psp.mp4
Format : MPEG-4
Format profile : Sony PSP
Codec ID : MSNV
File size : 91.2 MiB
Duration : 19mn 51s
Overall bit rate mode : Variable
Overall bit rate : 642 Kbps
Encoded date : UTC 2012-01-18 09:04:30
Tagged date : UTC 2012-01-18 09:04:30

Video
ID : 1
Format : AVC
Format/Info : Advanced Video Codec
Format profile : <a href="mailto:Main@L3.0" class="postLink">Main@L3.0</a>
Format settings, CABAC : Yes
Format settings, ReFrames : 3 frames
Codec ID : avc1
Codec ID/Info : Advanced Video Coding
Duration : 19mn 51s
Bit rate : 512 Kbps
Maximum bit rate : 2 240 Kbps
Width : 368 pixels
Height : 272 pixels
Display aspect ratio : 4:3
Frame rate mode : Constant
Frame rate : 25.000 fps
Color space : YUV
Chroma subsampling : 4:2:0
Bit depth : 8 bits
Scan type : Progressive
Bits/(Pixel*Frame) : 0.205
Stream size : 72.7 MiB (80%)
Writing library : x264 core 116 r2074 2641b9e
Encoding settings : cabac=1 / ref=3 / deblock=1:0:0 / analyse=0x1:0x111 / me=umh / subme=9 / psy=1 / psy_rd=1.00:0.00 / mixed_ref=1 / me_range=16 / chroma_me=1 / trellis=2 / 8x8dct=0 / cqm=0 / deadzone=21,11 / fast_pskip=0 / chroma_qp_offset=-2 / threads=6 / sliced_threads=0 / nr=0 / decimate=1 / interlaced=0 / bluray_compat=0 / constrained_intra=0 / bframes=16 / b_pyramid=0 / b_adapt=0 / b_bias=0 / direct=3 / weightb=1 / open_gop=0 / weightp=0 / keyint=250 / keyint_min=25 / scenecut=40 / intra_refresh=0 / rc_lookahead=40 / rc=2pass / mbtree=1 / bitrate=512 / ratetol=1.0 / qcomp=0.60 / qpmin=10 / qpmax=51 / qpstep=4 / cplxblur=20.0 / qblur=0.5 / vbv_maxrate=10000 / vbv_bufsize=10000 / nal_hrd=none / ip_ratio=1.40 / aq=1:1.00
Encoded date : UTC 2012-01-18 08:44:37
Tagged date : UTC 2012-01-18 09:04:31

Audio
ID : 2
Format : AAC
Format/Info : Advanced Audio Codec
Format profile : LC
Codec ID : 40
Duration : 19mn 51s
Bit rate mode : Variable
Bit rate : 128 Kbps
Maximum bit rate : 132 Kbps
Channel(s) : 2 channels
Channel positions : Front: L R
Sampling rate : 48.0 KHz
Compression mode : Lossy
Stream size : 18.2 MiB (20%)
Language : Russian
Encoded date : UTC 2012-01-18 09:04:30
Tagged date : UTC 2012-01-18 09:04:31


Трекер:  [ 11-Июн-2012 18:24 ]

  

Скачать .torrent

Размер .torrent файла 14 KB


Размер: 91 MB
Хэш (hash) релиза: 4ee369e938def5334a8c97136643e613a23d6546
Подписка на обновления:

Еще никто не оставлял запись к записи скачать торрент [MULT] Падал прошлогодний снег . Будь первым!

!Обратная связь