Скачать через торрент [MULT] Кот в Сапогах: Три дьяволёнка Три чертёнка Фильм бесплатно в хорошем качестве torrent

Скачивайте на UnionPeer.org фильмы через торрент без регистрации. Новинки кино в хорошем качестве через торрент. На UnionPeer.org можно скачать через торрент фильмы 2014 и 2015 годов. Самые новые фильмы.

Скачать торрент [MULT] Кот в Сапогах: Три дьяволёнка Три чертёнка бесплатно через .torrent фильм мультфильм сериал

Если у вас наблюдаются проблемы со скриншотами, переходом по ссылками, скачиванием торрентов - проблемы в блокировщике рекламы AdBlock. #хорошегоДня!


Статистика раздачи
Размер:  121 MB   |    Зарегистрирован:  5 лет 2 месяца   |    .torrent скачан:  53 раза   |   
Раздают:  1  
   
Загрузка...
 
Автор Сообщение

Galfimbul

avatar Galfimbul


Кот в Сапогах: Три дьяволёнка / Три чертёнка Puss in Boots: The Three Diablos

Оригинальное название: Puss in Boots: The Three Diablos
Год выпуска: 2011 г.
Страна: США
Жанр: короткометражный мультфильм, приключения
Продолжительность: 0:13:05
Перевод:

Профессиональный (полное дублирование) Студия "Пифагор"
Профессиональный (многоголосый закадровый) Студия "Омикрон"
Авторский (одноголосый закадровый) Юрий Сербин
Одноголосый закадровый (Доцент)
Любительский (многоголосый закадровый) SkyeFilmTV

Оригинал:

английский

Cубтитры: нет
Режиссер: Раман Хюи / Raman Hui
Роли озвучивали: Антонио Бандерас, Гийом Аретос, Майлз Кристофер Бакши, Нина Зои Бакши, Уолт Дорн, Жилль Марини, Брэт Марнелл, Крис Миллер, Шарлотта Ньюхаус
Роли дублировали: Всеволод Кузнецов, Александр Носков, Григорий Маликов, Елена Ивченко, Сергей Чурбаков, Юрий Меншагин, Александр Новиков, Василий Дахненко
Описание: Кот в Сапогах отправляется на поиски рубина, украденного из короны принцессы. Его сопровождают три маленьких котенка..
Доп. информация:

Перевод Ю.Сербина осуществлен совместно ресурсами HDclub и E180. Спонсоры: safreks, пуля, Ramis, rammzez, Slimka, dir, Bilko, oleg-k, multmir, vik19662007, carnivale, anton966.
Перевод/озвучивание cтудии "Омикрон" (5 актеров) осуществлен ресурсом HDclub. Спонсоры: Domovenok, ADalagor, dotCom, dimgord, Baron0580, Noks.
Перевод Доцента выполнен в рамках RG Мультфильмы http://рутраскер.
Звуковая дорожка "SkyeFilmTV". Перевод - JonEA. Редактор - `+1_. Озвучка - JonEA, `+1_, Deman, kis-natella, SerGoLeOne.

Огромное спасибо им всем за это!!
Качество видео: HDRip
Формат: MP4
Видео кодек: H.264
Аудио кодек: AAC
Видео: 480x272 (16:9), 23.976 fps, x264 ~512 kbps avg, 0.164 bit/pixel
Аудио 1: [RUS] AAC-LC VBR 2 channels, 48.0 KHz ~128 Kbps Профессиональный (полное дублирование)
Аудио 2: [RUS] AAC-LC VBR 2 channels, 48.0 KHz ~128 Kbps Профессиональный (многоголосый закадровый) Студия "Омикрон"
Аудио 3: [RUS] AAC-LC VBR 2 channels, 48.0 KHz ~128 Kbps Авторский (одноголосый закадровый) Юрий Сербин
Аудио 4: [RUS] AAC-LC VBR 2 channels, 48.0 KHz ~128 Kbps Одноголосый закадровый (Доцент)
Аудио 5: [RUS] AAC-LC VBR 2 channels, 48.0 KHz ~128 Kbps Любительский (многоголосый закадровый) SkyeFilmTV
Аудио 6: [ENG] AAC-LC VBR 2 channels, 48.0 KHz ~128 Kbps Оригинальный (английский)
General
Complete name : D:\Фильмы\PSP\Мультики\Puss in boots - three diablos (2011)\Puss in boots - three diablos (2011).mp4
Format : MPEG-4
Format profile : Base Media / Version 2
Codec ID : mp42
File size : 121 MiB
Duration : 13mn 5s
Overall bit rate mode : Variable
Overall bit rate : 1 292 Kbps
Encoded date : UTC 2012-04-12 12:01:30
Tagged date : UTC 2012-04-12 12:37:14
Writing application : HandBrake 0.9.6 2012022800

Video
ID : 1
Format : AVC
Format/Info : Advanced Video Codec
Format profile : <a href="mailto:Main@L2.1" class="postLink">Main@L2.1</a>
Format settings, CABAC : Yes
Format settings, ReFrames : 3 frames
Codec ID : avc1
Codec ID/Info : Advanced Video Coding
Duration : 13mn 5s
Bit rate mode : Variable
Bit rate : 512 Kbps
Width : 480 pixels
Height : 272 pixels
Display aspect ratio : 16:9
Frame rate mode : Variable
Frame rate : 23.976 fps
Minimum frame rate : 23.968 fps
Maximum frame rate : 23.981 fps
Color space : YUV
Chroma subsampling : 4:2:0
Bit depth : 8 bits
Scan type : Progressive
Bits/(Pixel*Frame) : 0.164
Stream size : 47.9 MiB (40%)
Writing library : x264 core 120
Encoding settings : cabac=1 / ref=3 / deblock=1:0:0 / analyse=0x1:0x1 / me=umh / subme=9 / psy=1 / psy_rd=1.00:0.00 / mixed_ref=1 / me_range=16 / chroma_me=1 / trellis=1 / 8x8dct=0 / cqm=0 / deadzone=21,11 / fast_pskip=1 / chroma_qp_offset=-2 / threads=1 / sliced_threads=0 / nr=0 / decimate=0 / interlaced=0 / bluray_compat=0 / constrained_intra=0 / bframes=3 / b_pyramid=0 / b_adapt=1 / b_bias=0 / direct=1 / weightb=1 / open_gop=0 / weightp=1 / keyint=240 / keyint_min=24 / scenecut=40 / intra_refresh=0 / rc_lookahead=10 / rc=2pass / mbtree=1 / bitrate=512 / ratetol=1.0 / qcomp=0.60 / qpmin=3 / qpmax=69 / qpstep=4 / cplxblur=20.0 / qblur=0.5 / ip_ratio=1.40 / aq=1:1.00
Encoded date : UTC 2012-04-12 12:01:30
Tagged date : UTC 2012-04-12 12:37:14
Color primaries : BT.709-5, BT.1361, IEC 61966-2-4, SMPTE RP177
Transfer characteristics : BT.709-5, BT.1361
Matrix coefficients : BT.709-5, BT.1361, IEC 61966-2-4 709, SMPTE RP177

Audio #1
ID : 2
Format : AAC
Format/Info : Advanced Audio Codec
Format profile : LC
Codec ID : 40
Duration : 13mn 5s
Bit rate mode : Variable
Bit rate : 128 Kbps
Maximum bit rate : 262 Kbps
Channel(s) : 2 channels
Channel positions : Front: L R
Sampling rate : 48.0 KHz
Compression mode : Lossy
Stream size : 12.0 MiB (10%)
Language : Russian
Encoded date : UTC 2012-04-12 12:01:30
Tagged date : UTC 2012-04-12 12:37:13

Audio #2
ID : 3
Format : AAC
Format/Info : Advanced Audio Codec
Format profile : LC
Codec ID : 40
Duration : 13mn 5s
Bit rate mode : Variable
Bit rate : 128 Kbps
Maximum bit rate : 157 Kbps
Channel(s) : 2 channels
Channel positions : Front: L R
Sampling rate : 48.0 KHz
Compression mode : Lossy
Stream size : 12.0 MiB (10%)
Language : Russian
Encoded date : UTC 2012-04-12 12:01:30
Tagged date : UTC 2012-04-12 12:37:13

Audio #3
ID : 4
Format : AAC
Format/Info : Advanced Audio Codec
Format profile : LC
Codec ID : 40
Duration : 13mn 5s
Bit rate mode : Variable
Bit rate : 128 Kbps
Maximum bit rate : 162 Kbps
Channel(s) : 2 channels
Channel positions : Front: L R
Sampling rate : 48.0 KHz
Compression mode : Lossy
Stream size : 12.0 MiB (10%)
Language : Russian
Encoded date : UTC 2012-04-12 12:01:30
Tagged date : UTC 2012-04-12 12:37:13

Audio #4
ID : 5
Format : AAC
Format/Info : Advanced Audio Codec
Format profile : LC
Codec ID : 40
Duration : 13mn 5s
Bit rate mode : Variable
Bit rate : 128 Kbps
Maximum bit rate : 256 Kbps
Channel(s) : 2 channels
Channel positions : Front: L R
Sampling rate : 48.0 KHz
Compression mode : Lossy
Stream size : 12.0 MiB (10%)
Language : Russian
Encoded date : UTC 2012-04-12 12:01:30
Tagged date : UTC 2012-04-12 12:37:13

Audio #5
ID : 6
Format : AAC
Format/Info : Advanced Audio Codec
Format profile : LC
Codec ID : 40
Duration : 13mn 5s
Bit rate mode : Variable
Bit rate : 128 Kbps
Maximum bit rate : 264 Kbps
Channel(s) : 2 channels
Channel positions : Front: L R
Sampling rate : 48.0 KHz
Compression mode : Lossy
Stream size : 12.0 MiB (10%)
Language : Russian
Encoded date : UTC 2012-04-12 12:01:30
Tagged date : UTC 2012-04-12 12:37:13

Audio #6
ID : 7
Format : AAC
Format/Info : Advanced Audio Codec
Format profile : LC
Codec ID : 40
Duration : 13mn 5s
Bit rate mode : Variable
Bit rate : 128 Kbps
Maximum bit rate : 264 Kbps
Channel(s) : 2 channels
Channel positions : Front: L R
Sampling rate : 48.0 KHz
Compression mode : Lossy
Stream size : 12.0 MiB (10%)
Language : Russian
Encoded date : UTC 2012-04-12 12:01:30
Tagged date : UTC 2012-04-12 12:37:13


Трекер:  [ 11-Июн-2012 18:01 ]

  

Скачать .torrent

Размер .torrent файла 19 KB


Размер: 121 MB
Хэш (hash) релиза: c85690f6c5e41b1c1deaadef3287e9d858ab51b4
Подписка на обновления:

Еще никто не оставлял запись к записи скачать торрент [MULT] Кот в Сапогах: Три дьяволёнка Три чертёнка . Будь первым!

!Обратная связь