Скачать через торрент Код доступа «Кейптаун» Safe House бесплатно русская версия torrent активатор

Если у вас наблюдаются проблемы со скриншотами, переходом по ссылками, скачиванием торрентов - проблемы в блокировщике рекламы AdBlock. #хорошегоДня!


Статистика раздачи
Размер:  1.18 GB   |    Зарегистрирован:  5 лет 4 месяца   |    .torrent скачан:  85 раз   |   
Раздают:  1  
   
Загрузка...
 
Автор Сообщение

L


Код доступа «Кейптаун» / Safe House

Год выпуска: 2012
Страна: США, ЮАР
Жанр: боевик, триллер, криминал? детектив
Продолжительность: 01:54:54
Перевод : Профессиональный (полное дублирование)
Русские субтитры: есть
Режиссёр: Дэниэл Эспиноза / Daniel Espinosa
В ролях: Дензел Вашингтон, Райан Рейнольдс, Вера Фармига, Брендан Глисон, Сэм Шепард, Рубен Бладес, Нора Арнезедер, Роберт Патрик, Лиам Каннингэм, Юэль Киннаман
Описание: Выпускник Гарварда Мэтт мечтает со своей невестой переехать в Париж. Но она не знает, что уже год он работает на ЦРУ. Легендарный агент ЦРУ Фрост владеет секретной информацией. Но он вышел из-под контроля, и теперь его главное правило: «не доверяй никому — тебя предаст каждый». Их пути пересекутся в одном из красивейших городов мира — Кейптауне, где каждый должен будет сделать свой выбор.
Качество: BDRip
Формат: *.m4v
Видео кодек: H.264
аудио кодек: ААС
Разрешение: 720x320
Другие параметры видео: AVC at 1200 Кбит/сек, 720 x 320 (2.250) at 23.976 fps
Аудио: AAC at 128 Кбит/сек, 2 канала, 48,0 КГц
Вшитая обложка: есть
Доп. теги (режиссёр, актёры и т.д.): прописаны
Телешоу/видеоклип : не требуется
Главы: нет
Серия/сезон: не требуется
Общее
Полное имя : E:\Safe House.m4v
Формат : MPEG-4
Идентификатор кодека : M4V
Размер файла : 1,18 Гбайт
Продолжительность : 1 ч. 54 м.
Режим общего битрейта : Переменный
Общий поток : 1467 Кбит/сек
Название фильма : Safe House
Исполнитель : Дэниэл Эспиноза
Жанр : Action
Дата записи : 2012-02-07
Дата кодирования : UTC 2012-06-07 11:30:47
Дата пометки : UTC 2012-06-08 11:40:24
Программа кодирования : Yamb 2.1.0.0 []http://yamb.unite-video.com]
Обложка : Yes
iTunEXTC : mpaa|R|400|
iTunMOVI : <?xml version="1.0" encoding="UTF-8"?> / <!DOCTYPE plist PUBLIC "-//Apple//DTD PLIST 1.0//EN" "http://www.apple.com/DTDs/PropertyList-1.0.dtd"> / <plist version="1.0"> / <dict> / <key>cast</key> / <array> / <dict> / <key>name</key> / <string>Дензел Вашингтон</string> / </dict> / <dict> / <key>name</key> / <string>Райан Рейнольдс</string> / </dict> / <dict> / <key>name</key> / <string>Вера Фармига</string> / </dict> / </array> / <key>directors</key> / <array> / <dict> / <key>name</key> / <string>Дэниэл Эспиноза</string> / </dict> / </array> / <key>producers</key> / <array> / <dict> / <key>name</key> / <string>Скотт Стубер</string> / </dict> / <dict> / <key>name</key> / <string>Скотт Аверсано</string> / </dict> / <dict> / <key>name</key> / <string>Марк Д. Эванс</string> / </dict> / </array> / <key>screenwriters</key> / <array> / <dict> / <key>name</key> / <string>Дэвид Гуггенхейм</string> / </dict> / </array> / </dict> / </plist>
desc : Выпускник Гарварда Мэтт мечтает со своей невестой переехать в Париж. Но она не знает, что уже год он работает на ЦРУ. / / / .
ldes : Выпускник Гарварда Мэтт мечтает со своей невестой переехать в Париж. Но она не знает, что уже год он работает на ЦРУ. / / Легендарный агент ЦРУ Фрост владеет секретной информацией. Но он вышел из-под контроля, и теперь его главное правило: «не доверяй никому — тебя предаст каждый». / / Их пути пересекутся в одном из красивейших городов мира — Кейптауне, где каждый должен будет сделать свой выбор.
hdvd : 0
stik : 9
akID : -1
sfID : 0

Видео
Идентификатор : 1
Формат : AVC
Формат/Информация : Advanced Video Codec
Профиль формата : <a href="mailto:Baseline@L3.0" class="postLink">Baseline@L3.0</a>
Параметр CABAC формата : Нет
Параметр ReFrames формата : 4 кадра
Идентификатор кодека : avc1
Идентификатор кодека/Информация : Advanced Video Coding
Продолжительность : 1 ч. 54 м.
Битрейт : 1200 Кбит/сек
Максимальный битрейт : 5891 Кбит/сек
Ширина : 720 пикселей
Высота : 320 пикселей
Соотношение сторон : 2,25:1
Режим частоты кадров : Переменный
Частота кадров : 23,976 кадра/сек
Минимальная частота кадров : 23,810 кадра/сек
Максимальная частота кадров : 24,390 кадра/сек
Цветовое пространство : YUV
Субдискретизация насыщенности : 4:2:0
Битовая глубина : 8 бит
Тип развёртки : Прогрессивная
Бит/(Пиксели*Кадры) : 0.217
Размер потока : 986 Мбайт (82%)
Библиотека кодирования : x264 core 120
Настройки программы : cabac=0 / ref=4 / deblock=1:0:0 / analyse=0x1:0x111 / me=umh / subme=8 / psy=1 / psy_rd=1.00:0.00 / mixed_ref=1 / me_range=16 / chroma_me=1 / trellis=0 / 8x8dct=0 / cqm=0 / deadzone=21,11 / fast_pskip=1 / chroma_qp_offset=-2 / threads=6 / sliced_threads=0 / nr=0 / decimate=1 / interlaced=0 / bluray_compat=0 / constrained_intra=0 / bframes=0 / weightp=0 / keyint=240 / keyint_min=24 / scenecut=40 / intra_refresh=0 / rc_lookahead=40 / rc=2pass / mbtree=1 / bitrate=1200 / ratetol=1.0 / qcomp=0.60 / qpmin=3 / qpmax=69 / qpstep=4 / cplxblur=20.0 / qblur=0.5 / ip_ratio=1.40 / aq=1:1.00
Дата кодирования : UTC 2012-06-08 08:57:02
Дата пометки : UTC 2012-06-07 11:32:46
Основные цвета : BT.709-5, BT.1361, IEC 61966-2-4, SMPTE RP177
Характеристики трансфера : BT.709-5, BT.1361
Коэффициенты матрицы : BT.709-5, BT.1361, IEC 61966-2-4 709, SMPTE RP177

Аудио #1
Идентификатор : 2
Формат : AAC
Формат/Информация : Advanced Audio Codec
Профиль формата : LC
Идентификатор кодека : 40
Продолжительность : 1 ч. 54 м.
Вид битрейта : Переменный
Битрейт : 128 Кбит/сек
Максимальный битрейт : 165 Кбит/сек
Каналы : 2 канала
Расположение каналов : Front: L R
Частота : 48,0 КГц
Метод сжатия : С потерями
Размер потока : 105 Мбайт (9%)
Язык : Russian
Дата кодирования : UTC 2012-06-07 11:32:38
Дата пометки : UTC 2012-06-07 11:32:46

Аудио #2
Идентификатор : 3
Формат : AAC
Формат/Информация : Advanced Audio Codec
Профиль формата : LC
Идентификатор кодека : 40
Продолжительность : 1 ч. 54 м.
Вид битрейта : Переменный
Битрейт : 128 Кбит/сек
Максимальный битрейт : 162 Кбит/сек
Каналы : 2 канала
Расположение каналов : Front: L R
Частота : 48,0 КГц
Метод сжатия : С потерями
Размер потока : 105 Мбайт (9%)
Язык : English
Дата кодирования : UTC 2012-06-07 11:32:42
Дата пометки : UTC 2012-06-07 11:32:46

Текст #1
Идентификатор : 4
Формат : Timed text
Режим смешивания : sbtl
Идентификатор кодека : tx3g
Продолжительность : 1 ч. 49 м.
Вид битрейта : Переменный
Битрейт : 68 бит/сек
Размер потока : 55,0 Кбайт (0%)
Язык : Russian
Дата кодирования : UTC 2012-06-07 11:32:46
Дата пометки : UTC 2012-06-07 11:32:46

Текст #2
Идентификатор : 5
Формат : Timed text
Режим смешивания : sbtl
Идентификатор кодека : tx3g
Продолжительность : 1 ч. 48 м.
Вид битрейта : Переменный
Битрейт : 44 бит/сек
Размер потока : 34,7 Кбайт (0%)
Язык : English
Дата кодирования : UTC 2012-06-07 11:32:46
Дата пометки : UTC 2012-06-07 11:32:46



Трекер:  [ 08-Июн-2012 18:57 ]

  

Скачать .torrent

Размер .torrent файла 12 KB


Размер: 1.18 GB
Хэш (hash) релиза: b5fe3f27c513c9842e5299f56c3d9ae2debb4467

Еще никто не оставлял запись к записи скачать торрент Код доступа «Кейптаун» Safe House . Будь первым!

!Обратная связь