Скачать через торрент Истории подделок Nisemonogatari бесплатно Аниме Все серии на русском torrent

Если у вас наблюдаются проблемы со скриншотами, переходом по ссылками, скачиванием торрентов - проблемы в блокировщике рекламы AdBlock. #хорошегоДня!


Статистика раздачи
Размер:  5.93 GB   |    Зарегистрирован:  5 лет 3 месяца   |    .torrent скачан:  59 раз   |   
Раздают:  1  
   
Загрузка...
 
Автор Сообщение

Umakiro

avatar Umakiro


Истории подделок / Nisemonogatari

Страна: Япония
Год выпуска: 2012
Жанр: комедия, этти, мистика
Тип: TV
Продолжительность: 24 мин 10 с на эпизод
Режиссер: Акиюки Симбо
Студия: Shaft
Описание: Шарлатан по имени Кайки Дейшу, обманувший в прошлом Хитаги, появляется в городе и распространяет заклятие подобное тому, которым когда-то была проклята Надеко.
Сестры Коёми — Карен и Цукихи — пытаются поймать Дейшу, но...
Качество: HDTVRip [HorribleSubs]
Тип релиза: без хардсаба
Формат видео: MP4
Наличие линковки: нет
Видео: H.264, 1920x1080, 3072 Kbps, 23.976 fps
Аудио: AAC, 128 Kbps, 44.1 KHz, 2 ch; язык: японский
Субтитры #1: внешние; язык субтитров: английский
Субтитры #2: внешние; язык субтитров: русский; перевод: Dreamers Team
  
GeneralFormat : MPEG-4Format profile : Base MediaCodec ID : isomFile size : 553 MiBDuration : 24mn 10sOverall bit rate mode : VariableOverall bit rate : 3 199 KbpsWriting application : Yamb 2.1.0.0 http://yamb.unite-video.com

VideoID : 1Format : AVCFormat/Info : Advanced Video CodecFormat profile : <a href="mailto:High@L5.0Format" class="postLink">High@L5.0Format</a> settings, CABAC : YesFormat settings, ReFrames : 6 framesCodec ID : avc1Codec ID/Info : Advanced Video CodingDuration : 24mn 10sBit rate : 3 072 KbpsMaximum bit rate : 14.6 MbpsWidth : 1 920 pixelsHeight : 1 080 pixelsDisplay aspect ratio : 16:9Frame rate mode : ConstantFrame rate : 23.976 fpsColor space : YUVChroma subsampling : 4:2:0Bit depth : 8 bitsScan type : ProgressiveBits/(Pixel*Frame) : 0.062Stream size : 530 MiB (96%)Writing library : x264 core 120 r2120 0c7dab9Encoding settings : cabac=1 / ref=6 / deblock=1:1:1 / analyse=0x3:0x113 / me=umh / subme=8 / psy=1 / psy_rd=0.40:0.00 / mixed_ref=1 / me_range=16 / chroma_me=1 / trellis=1 / 8x8dct=1 / cqm=0 / deadzone=21,11 / fast_pskip=1 / chroma_qp_offset=-2 / threads=8 / sliced_threads=0 / nr=0 / decimate=1 / interlaced=0 / bluray_compat=0 / constrained_intra=0 / bframes=3 / b_pyramid=2 / b_adapt=2 / b_bias=0 / direct=3 / weightb=1 / open_gop=0 / weightp=2 / keyint=250 / keyint_min=23 / scenecut=40 / intra_refresh=0 / rc_lookahead=50 / rc=2pass / mbtree=1 / bitrate=3072 / ratetol=1.0 / qcomp=0.60 / qpmin=0 / qpmax=69 / qpstep=4 / cplxblur=20.0 / qblur=0.5 / vbv_maxrate=6144 / vbv_bufsize=15360 / nal_hrd=none / ip_ratio=1.40 / aq=1:0.60

AudioID : 2Format : AACFormat/Info : Advanced Audio CodecFormat profile : LCCodec ID : 40Duration : 24mn 10sBit rate mode : VariableBit rate : 128 KbpsMaximum bit rate : 139 KbpsChannel(s) : 2 channelsChannel positions : Front: L RSampling rate : 44.1 KHzCompression mode : LossyStream size : 22.1 MiB (4%)

Menu00:00:00.000 : Avant00:05:57.148 : OP00:07:27.113 : A-part00:13:10.123 : B-part00:22:00.861 : ED
  
GeneralFormat : MPEG-4Format profile : Base MediaCodec ID : isomFile size : 551 MiBDuration : 24mn 10sOverall bit rate mode : VariableOverall bit rate : 3 187 KbpsWriting application : Yamb 2.1.0.0 http://yamb.unite-video.com

VideoID : 1Format : AVCFormat/Info : Advanced Video CodecFormat profile : <a href="mailto:High@L5.0Format" class="postLink">High@L5.0Format</a> settings, CABAC : YesFormat settings, ReFrames : 6 framesCodec ID : avc1Codec ID/Info : Advanced Video CodingDuration : 24mn 10sBit rate : 3 072 KbpsMaximum bit rate : 10.5 MbpsWidth : 1 920 pixelsHeight : 1 080 pixelsDisplay aspect ratio : 16:9Frame rate mode : ConstantFrame rate : 23.976 fpsColor space : YUVChroma subsampling : 4:2:0Bit depth : 8 bitsScan type : ProgressiveBits/(Pixel*Frame) : 0.062Stream size : 528 MiB (96%)Writing library : x264 core 120 r2120 0c7dab9Encoding settings : cabac=1 / ref=6 / deblock=1:1:1 / analyse=0x3:0x113 / me=umh / subme=8 / psy=1 / psy_rd=0.40:0.00 / mixed_ref=1 / me_range=16 / chroma_me=1 / trellis=1 / 8x8dct=1 / cqm=0 / deadzone=21,11 / fast_pskip=1 / chroma_qp_offset=-2 / threads=8 / sliced_threads=0 / nr=0 / decimate=1 / interlaced=0 / bluray_compat=0 / constrained_intra=0 / bframes=3 / b_pyramid=2 / b_adapt=2 / b_bias=0 / direct=3 / weightb=1 / open_gop=0 / weightp=2 / keyint=250 / keyint_min=23 / scenecut=40 / intra_refresh=0 / rc_lookahead=50 / rc=2pass / mbtree=1 / bitrate=3072 / ratetol=1.0 / qcomp=0.60 / qpmin=0 / qpmax=69 / qpstep=4 / cplxblur=20.0 / qblur=0.5 / vbv_maxrate=6144 / vbv_bufsize=15360 / nal_hrd=none / ip_ratio=1.40 / aq=1:0.60

AudioID : 2Format : AACFormat/Info : Advanced Audio CodecFormat profile : LCCodec ID : 40Duration : 24mn 10sBit rate mode : VariableBit rate : 128 KbpsMaximum bit rate : 137 KbpsChannel(s) : 2 channelsChannel positions : Front: L RSampling rate : 44.1 KHzCompression mode : LossyStream size : 22.1 MiB (4%)

Menu00:00:00.000 : Avant00:01:50.152 : OP00:03:19.866 : A-part00:12:51.104 : B-part00:22:40.150 : ED
  
GeneralFormat : MPEG-4Format profile : Base MediaCodec ID : isomFile size : 548 MiBDuration : 24mn 9sOverall bit rate mode : VariableOverall bit rate : 3 170 KbpsWriting application : Yamb 2.1.0.0 http://yamb.unite-video.com

VideoID : 1Format : AVCFormat/Info : Advanced Video CodecFormat profile : <a href="mailto:High@L5.0Format" class="postLink">High@L5.0Format</a> settings, CABAC : YesFormat settings, ReFrames : 6 framesCodec ID : avc1Codec ID/Info : Advanced Video CodingDuration : 24mn 9sBit rate : 3 072 KbpsMaximum bit rate : 12.8 MbpsWidth : 1 920 pixelsHeight : 1 080 pixelsDisplay aspect ratio : 16:9Frame rate mode : ConstantFrame rate : 23.976 fpsColor space : YUVChroma subsampling : 4:2:0Bit depth : 8 bitsScan type : ProgressiveBits/(Pixel*Frame) : 0.062Stream size : 525 MiB (96%)Writing library : x264 core 120 r2120 0c7dab9Encoding settings : cabac=1 / ref=6 / deblock=1:1:1 / analyse=0x3:0x113 / me=umh / subme=8 / psy=1 / psy_rd=0.40:0.00 / mixed_ref=1 / me_range=16 / chroma_me=1 / trellis=1 / 8x8dct=1 / cqm=0 / deadzone=21,11 / fast_pskip=1 / chroma_qp_offset=-2 / threads=8 / sliced_threads=0 / nr=0 / decimate=1 / interlaced=0 / bluray_compat=0 / constrained_intra=0 / bframes=3 / b_pyramid=2 / b_adapt=2 / b_bias=0 / direct=3 / weightb=1 / open_gop=0 / weightp=2 / keyint=250 / keyint_min=23 / scenecut=40 / intra_refresh=0 / rc_lookahead=50 / rc=2pass / mbtree=1 / bitrate=3072 / ratetol=1.0 / qcomp=0.60 / qpmin=0 / qpmax=69 / qpstep=4 / cplxblur=20.0 / qblur=0.5 / vbv_maxrate=6144 / vbv_bufsize=15360 / nal_hrd=none / ip_ratio=1.40 / aq=1:0.60

AudioID : 2Format : AACFormat/Info : Advanced Audio CodecFormat profile : LCCodec ID : 40Duration : 24mn 9sBit rate mode : VariableBit rate : 128 KbpsMaximum bit rate : 138 KbpsChannel(s) : 2 channelsChannel positions : Front: L RSampling rate : 44.1 KHzCompression mode : LossyStream size : 22.1 MiB (4%)

Menu00:00:00.000 : Avant00:04:18.800 : OP00:05:48.807 : A-part00:15:28.803 : B-part00:22:39.817 : ED
  
GeneralFormat : MPEG-4Format profile : Base MediaCodec ID : isomFile size : 553 MiBDuration : 24mn 10sOverall bit rate mode : VariableOverall bit rate : 3 200 KbpsWriting application : Yamb 2.1.0.0 http://yamb.unite-video.com

VideoID : 1Format : AVCFormat/Info : Advanced Video CodecFormat profile : <a href="mailto:High@L5.0Format" class="postLink">High@L5.0Format</a> settings, CABAC : YesFormat settings, ReFrames : 6 framesCodec ID : avc1Codec ID/Info : Advanced Video CodingDuration : 24mn 10sBit rate : 3 072 KbpsMaximum bit rate : 14.7 MbpsWidth : 1 920 pixelsHeight : 1 080 pixelsDisplay aspect ratio : 16:9Frame rate mode : ConstantFrame rate : 23.976 fpsColor space : YUVChroma subsampling : 4:2:0Bit depth : 8 bitsScan type : ProgressiveBits/(Pixel*Frame) : 0.062Stream size : 530 MiB (96%)Writing library : x264 core 120 r2120 0c7dab9Encoding settings : cabac=1 / ref=6 / deblock=1:1:1 / analyse=0x3:0x113 / me=umh / subme=8 / psy=1 / psy_rd=0.40:0.00 / mixed_ref=1 / me_range=16 / chroma_me=1 / trellis=1 / 8x8dct=1 / cqm=0 / deadzone=21,11 / fast_pskip=1 / chroma_qp_offset=-2 / threads=8 / sliced_threads=0 / nr=0 / decimate=1 / interlaced=0 / bluray_compat=0 / constrained_intra=0 / bframes=3 / b_pyramid=2 / b_adapt=2 / b_bias=0 / direct=3 / weightb=1 / open_gop=0 / weightp=2 / keyint=250 / keyint_min=23 / scenecut=40 / intra_refresh=0 / rc_lookahead=50 / rc=2pass / mbtree=1 / bitrate=3072 / ratetol=1.0 / qcomp=0.60 / qpmin=0 / qpmax=69 / qpstep=4 / cplxblur=20.0 / qblur=0.5 / vbv_maxrate=6144 / vbv_bufsize=15360 / nal_hrd=none / ip_ratio=1.40 / aq=1:0.60

AudioID : 2Format : AACFormat/Info : Advanced Audio CodecFormat profile : LCCodec ID : 40Duration : 24mn 10sBit rate mode : VariableBit rate : 128 KbpsMaximum bit rate : 136 KbpsChannel(s) : 2 channelsChannel positions : Front: L RSampling rate : 44.1 KHzCompression mode : LossyStream size : 22.1 MiB (4%)

Menu00:00:00.000 : Avant00:03:38.135 : A-part00:13:19.132 : B-part00:22:40.150 : ED
  
GeneralFormat : MPEG-4Format profile : Base MediaCodec ID : isomFile size : 550 MiBDuration : 24mn 10sOverall bit rate mode : VariableOverall bit rate : 3 180 KbpsWriting application : Yamb 2.1.0.0 http://yamb.unite-video.com

VideoID : 1Format : AVCFormat/Info : Advanced Video CodecFormat profile : <a href="mailto:High@L4.0Format" class="postLink">High@L4.0Format</a> settings, CABAC : YesFormat settings, ReFrames : 4 framesCodec ID : avc1Codec ID/Info : Advanced Video CodingDuration : 24mn 10sBit rate : 3 072 KbpsMaximum bit rate : 12.2 MbpsWidth : 1 920 pixelsHeight : 1 080 pixelsDisplay aspect ratio : 16:9Frame rate mode : ConstantFrame rate : 23.976 fpsColor space : YUVChroma subsampling : 4:2:0Bit depth : 8 bitsScan type : ProgressiveBits/(Pixel*Frame) : 0.062Stream size : 527 MiB (96%)Writing library : x264 core 120 r2120 0c7dab9Encoding settings : cabac=1 / ref=4 / deblock=1:1:1 / analyse=0x3:0x113 / me=umh / subme=8 / psy=1 / psy_rd=0.40:0.00 / mixed_ref=1 / me_range=16 / chroma_me=1 / trellis=1 / 8x8dct=1 / cqm=0 / deadzone=21,11 / fast_pskip=1 / chroma_qp_offset=-2 / threads=8 / sliced_threads=0 / nr=0 / decimate=1 / interlaced=0 / bluray_compat=0 / constrained_intra=0 / bframes=3 / b_pyramid=2 / b_adapt=2 / b_bias=0 / direct=3 / weightb=1 / open_gop=0 / weightp=2 / keyint=250 / keyint_min=23 / scenecut=40 / intra_refresh=0 / rc_lookahead=50 / rc=2pass / mbtree=1 / bitrate=3072 / ratetol=1.0 / qcomp=0.60 / qpmin=0 / qpmax=69 / qpstep=4 / cplxblur=20.0 / qblur=0.5 / vbv_maxrate=6144 / vbv_bufsize=15360 / nal_hrd=none / ip_ratio=1.40 / aq=1:0.60

AudioID : 2Format : AACFormat/Info : Advanced Audio CodecFormat profile : LCCodec ID : 40Duration : 24mn 10sBit rate mode : VariableBit rate : 128 KbpsMaximum bit rate : 140 KbpsChannel(s) : 2 channelsChannel positions : Front: L RSampling rate : 44.1 KHzCompression mode : LossyStream size : 22.1 MiB (4%)

Menu00:00:00.000 : Avant00:03:49.146 : OP00:05:18.652 : A-part00:12:25.161 : B-part00:22:40.150 : ED
  
GeneralFormat : MPEG-4Format profile : Base MediaCodec ID : isomFile size : 552 MiBDuration : 24mn 10sOverall bit rate mode : VariableOverall bit rate : 3 191 KbpsWriting application : Yamb 2.1.0.0 http://yamb.unite-video.com

VideoID : 1Format : AVCFormat/Info : Advanced Video CodecFormat profile : <a href="mailto:High@L4.0Format" class="postLink">High@L4.0Format</a> settings, CABAC : YesFormat settings, ReFrames : 4 framesCodec ID : avc1Codec ID/Info : Advanced Video CodingDuration : 24mn 9sBit rate : 3 072 KbpsMaximum bit rate : 13.0 MbpsWidth : 1 920 pixelsHeight : 1 080 pixelsDisplay aspect ratio : 16:9Frame rate mode : ConstantFrame rate : 23.976 fpsColor space : YUVChroma subsampling : 4:2:0Bit depth : 8 bitsScan type : ProgressiveBits/(Pixel*Frame) : 0.062Stream size : 529 MiB (96%)Writing library : x264 core 120 r2120 0c7dab9Encoding settings : cabac=1 / ref=4 / deblock=1:1:1 / analyse=0x3:0x113 / me=umh / subme=8 / psy=1 / psy_rd=0.40:0.00 / mixed_ref=1 / me_range=16 / chroma_me=1 / trellis=1 / 8x8dct=1 / cqm=0 / deadzone=21,11 / fast_pskip=1 / chroma_qp_offset=-2 / threads=8 / sliced_threads=0 / nr=0 / decimate=1 / interlaced=0 / bluray_compat=0 / constrained_intra=0 / bframes=3 / b_pyramid=2 / b_adapt=2 / b_bias=0 / direct=3 / weightb=1 / open_gop=0 / weightp=2 / keyint=250 / keyint_min=23 / scenecut=40 / intra_refresh=0 / rc_lookahead=50 / rc=2pass / mbtree=1 / bitrate=3072 / ratetol=1.0 / qcomp=0.60 / qpmin=0 / qpmax=69 / qpstep=4 / cplxblur=20.0 / qblur=0.5 / vbv_maxrate=6144 / vbv_bufsize=15360 / nal_hrd=none / ip_ratio=1.40 / aq=1:0.60

AudioID : 2Format : AACFormat/Info : Advanced Audio CodecFormat profile : LCCodec ID : 40Duration : 24mn 10sBit rate mode : VariableBit rate : 128 KbpsMaximum bit rate : 136 KbpsChannel(s) : 2 channelsChannel positions : Front: L RSampling rate : 44.1 KHzCompression mode : LossyStream size : 22.1 MiB (4%)

Menu00:00:00.000 : Avant00:05:27.118 : OP00:06:56.583 : A-part00:17:56.117 : B-part00:22:40.109 : ED
  
GeneralFormat : MPEG-4Format profile : Base MediaCodec ID : isomFile size : 552 MiBDuration : 24mn 10sOverall bit rate mode : VariableOverall bit rate : 3 195 KbpsWriting application : Yamb 2.1.0.0 http://yamb.unite-video.com

VideoID : 1Format : AVCFormat/Info : Advanced Video CodecFormat profile : <a href="mailto:High@L4.0Format" class="postLink">High@L4.0Format</a> settings, CABAC : YesFormat settings, ReFrames : 4 framesCodec ID : avc1Codec ID/Info : Advanced Video CodingDuration : 24mn 9sBit rate : 3 072 KbpsMaximum bit rate : 12.2 MbpsWidth : 1 920 pixelsHeight : 1 080 pixelsDisplay aspect ratio : 16:9Frame rate mode : ConstantFrame rate : 23.976 fpsColor space : YUVChroma subsampling : 4:2:0Bit depth : 8 bitsScan type : ProgressiveBits/(Pixel*Frame) : 0.062Stream size : 529 MiB (96%)Writing library : x264 core 120 r2120 0c7dab9Encoding settings : cabac=1 / ref=4 / deblock=1:1:1 / analyse=0x3:0x113 / me=umh / subme=8 / psy=1 / psy_rd=0.40:0.00 / mixed_ref=1 / me_range=16 / chroma_me=1 / trellis=1 / 8x8dct=1 / cqm=0 / deadzone=21,11 / fast_pskip=1 / chroma_qp_offset=-2 / threads=8 / sliced_threads=0 / nr=0 / decimate=1 / interlaced=0 / bluray_compat=0 / constrained_intra=0 / bframes=3 / b_pyramid=2 / b_adapt=2 / b_bias=0 / direct=3 / weightb=1 / open_gop=0 / weightp=2 / keyint=250 / keyint_min=23 / scenecut=40 / intra_refresh=0 / rc_lookahead=50 / rc=2pass / mbtree=1 / bitrate=3072 / ratetol=1.0 / qcomp=0.60 / qpmin=0 / qpmax=69 / qpstep=4 / cplxblur=20.0 / qblur=0.5 / vbv_maxrate=6144 / vbv_bufsize=15360 / nal_hrd=none / ip_ratio=1.40 / aq=1:0.60

AudioID : 2Format : AACFormat/Info : Advanced Audio CodecFormat profile : LCCodec ID : 40Duration : 24mn 10sBit rate mode : VariableBit rate : 128 KbpsMaximum bit rate : 135 KbpsChannel(s) : 2 channelsChannel positions : Front: L RSampling rate : 44.1 KHzCompression mode : LossyStream size : 22.1 MiB (4%)

Menu00:00:00.000 : Avant00:00:51.176 : A-part00:08:21.126 : B-part00:22:40.025 : ED
  
GeneralFormat : MPEG-4Format profile : Base MediaCodec ID : isomFile size : 552 MiBDuration : 24mn 10sOverall bit rate mode : VariableOverall bit rate : 3 194 KbpsWriting application : Yamb 2.1.0.0 http://yamb.unite-video.com

VideoID : 1Format : AVCFormat/Info : Advanced Video CodecFormat profile : <a href="mailto:High@L4.0Format" class="postLink">High@L4.0Format</a> settings, CABAC : YesFormat settings, ReFrames : 4 framesCodec ID : avc1Codec ID/Info : Advanced Video CodingDuration : 24mn 10sBit rate : 3 072 KbpsMaximum bit rate : 14.4 MbpsWidth : 1 920 pixelsHeight : 1 080 pixelsDisplay aspect ratio : 16:9Frame rate mode : ConstantFrame rate : 23.976 fpsColor space : YUVChroma subsampling : 4:2:0Bit depth : 8 bitsScan type : ProgressiveBits/(Pixel*Frame) : 0.062Stream size : 529 MiB (96%)Writing library : x264 core 120 r2120 0c7dab9Encoding settings : cabac=1 / ref=4 / deblock=1:1:1 / analyse=0x3:0x113 / me=umh / subme=8 / psy=1 / psy_rd=0.40:0.00 / mixed_ref=1 / me_range=16 / chroma_me=1 / trellis=1 / 8x8dct=1 / cqm=0 / deadzone=21,11 / fast_pskip=1 / chroma_qp_offset=-2 / threads=8 / sliced_threads=0 / nr=0 / decimate=1 / interlaced=0 / bluray_compat=0 / constrained_intra=0 / bframes=3 / b_pyramid=2 / b_adapt=2 / b_bias=0 / direct=3 / weightb=1 / open_gop=0 / weightp=2 / keyint=250 / keyint_min=23 / scenecut=40 / intra_refresh=0 / rc_lookahead=50 / rc=2pass / mbtree=1 / bitrate=3072 / ratetol=1.0 / qcomp=0.60 / qpmin=0 / qpmax=69 / qpstep=4 / cplxblur=20.0 / qblur=0.5 / vbv_maxrate=6144 / vbv_bufsize=15360 / nal_hrd=none / ip_ratio=1.40 / aq=1:0.60

AudioID : 2Format : AACFormat/Info : Advanced Audio CodecFormat profile : LCCodec ID : 40Duration : 24mn 10sBit rate mode : VariableBit rate : 128 KbpsMaximum bit rate : 138 KbpsChannel(s) : 2 channelsChannel positions : Front: L RSampling rate : 44.1 KHzCompression mode : LossyStream size : 22.1 MiB (4%)

Menu00:00:00.000 : Avant00:00:56.181 : OP00:02:26.146 : A-part00:11:52.128 : B-part00:22:40.150 : ED
  
GeneralFormat : MPEG-4Format profile : Base MediaCodec ID : isomFile size : 551 MiBDuration : 24mn 10sOverall bit rate mode : VariableOverall bit rate : 3 189 KbpsWriting application : Yamb 2.1.0.0 http://yamb.unite-video.com

VideoID : 1Format : AVCFormat/Info : Advanced Video CodecFormat profile : <a href="mailto:High@L4.0Format" class="postLink">High@L4.0Format</a> settings, CABAC : YesFormat settings, ReFrames : 4 framesCodec ID : avc1Codec ID/Info : Advanced Video CodingDuration : 24mn 9sBit rate : 3 072 KbpsMaximum bit rate : 13.0 MbpsWidth : 1 920 pixelsHeight : 1 080 pixelsDisplay aspect ratio : 16:9Frame rate mode : ConstantFrame rate : 23.976 fpsColor space : YUVChroma subsampling : 4:2:0Bit depth : 8 bitsScan type : ProgressiveBits/(Pixel*Frame) : 0.062Stream size : 528 MiB (96%)Writing library : x264 core 120 r2120 0c7dab9Encoding settings : cabac=1 / ref=4 / deblock=1:1:1 / analyse=0x3:0x113 / me=umh / subme=8 / psy=1 / psy_rd=0.40:0.00 / mixed_ref=1 / me_range=16 / chroma_me=1 / trellis=1 / 8x8dct=1 / cqm=0 / deadzone=21,11 / fast_pskip=1 / chroma_qp_offset=-2 / threads=8 / sliced_threads=0 / nr=0 / decimate=1 / interlaced=0 / bluray_compat=0 / constrained_intra=0 / bframes=3 / b_pyramid=2 / b_adapt=2 / b_bias=0 / direct=3 / weightb=1 / open_gop=0 / weightp=2 / keyint=250 / keyint_min=23 / scenecut=40 / intra_refresh=0 / rc_lookahead=50 / rc=2pass / mbtree=1 / bitrate=3072 / ratetol=1.0 / qcomp=0.60 / qpmin=0 / qpmax=69 / qpstep=4 / cplxblur=20.0 / qblur=0.5 / vbv_maxrate=6144 / vbv_bufsize=15360 / nal_hrd=none / ip_ratio=1.40 / aq=1:0.60

AudioID : 2Format : AACFormat/Info : Advanced Audio CodecFormat profile : LCCodec ID : 40Duration : 24mn 10sBit rate mode : VariableBit rate : 128 KbpsMaximum bit rate : 136 KbpsChannel(s) : 2 channelsChannel positions : Front: L RSampling rate : 44.1 KHzCompression mode : LossyStream size : 22.1 MiB (4%)

Menu00:00:00.000 : Avant00:01:04.106 : OP00:02:34.154 : A-part00:09:47.212 : B-part00:22:40.109 : ED
  
GeneralFormat : MPEG-4Format profile : Base MediaCodec ID : isomFile size : 553 MiBDuration : 24mn 10sOverall bit rate mode : VariableOverall bit rate : 3 196 KbpsWriting application : Yamb 2.1.0.0 http://yamb.unite-video.com

VideoID : 1Format : AVCFormat/Info : Advanced Video CodecFormat profile : <a href="mailto:High@L4.0Format" class="postLink">High@L4.0Format</a> settings, CABAC : YesFormat settings, ReFrames : 4 framesCodec ID : avc1Codec ID/Info : Advanced Video CodingDuration : 24mn 10sBit rate : 3 072 KbpsMaximum bit rate : 13.5 MbpsWidth : 1 920 pixelsHeight : 1 080 pixelsDisplay aspect ratio : 16:9Frame rate mode : ConstantFrame rate : 23.976 fpsColor space : YUVChroma subsampling : 4:2:0Bit depth : 8 bitsScan type : ProgressiveBits/(Pixel*Frame) : 0.062Stream size : 530 MiB (96%)Writing library : x264 core 120 r2120 0c7dab9Encoding settings : cabac=1 / ref=4 / deblock=1:1:1 / analyse=0x3:0x113 / me=umh / subme=8 / psy=1 / psy_rd=0.40:0.00 / mixed_ref=1 / me_range=16 / chroma_me=1 / trellis=1 / 8x8dct=1 / cqm=0 / deadzone=21,11 / fast_pskip=1 / chroma_qp_offset=-2 / threads=8 / sliced_threads=0 / nr=0 / decimate=1 / interlaced=0 / bluray_compat=0 / constrained_intra=0 / bframes=3 / b_pyramid=2 / b_adapt=2 / b_bias=0 / direct=3 / weightb=1 / open_gop=0 / weightp=2 / keyint=250 / keyint_min=23 / scenecut=40 / intra_refresh=0 / rc_lookahead=50 / rc=2pass / mbtree=1 / bitrate=3072 / ratetol=1.0 / qcomp=0.60 / qpmin=0 / qpmax=69 / qpstep=4 / cplxblur=20.0 / qblur=0.5 / vbv_maxrate=6144 / vbv_bufsize=15360 / nal_hrd=none / ip_ratio=1.40 / aq=1:0.60

AudioID : 2Format : AACFormat/Info : Advanced Audio CodecFormat profile : LCCodec ID : 40Duration : 24mn 10sBit rate mode : VariableBit rate : 128 KbpsMaximum bit rate : 138 KbpsChannel(s) : 2 channelsChannel positions : Front: L RSampling rate : 44.1 KHzCompression mode : LossyStream size : 22.1 MiB (4%)

Menu00:00:00.000 : Avant00:01:30.132 : OP00:03:00.180 : A-part00:14:23.237 : B-part00:22:40.234 : ED
  
GeneralFormat : MPEG-4Format profile : Base MediaCodec ID : isomFile size : 552 MiBDuration : 24mn 10sOverall bit rate mode : VariableOverall bit rate : 3 195 KbpsWriting application : Yamb 2.1.0.0 http://yamb.unite-video.com

VideoID : 1Format : AVCFormat/Info : Advanced Video CodecFormat profile : <a href="mailto:High@L4.0Format" class="postLink">High@L4.0Format</a> settings, CABAC : YesFormat settings, ReFrames : 4 framesCodec ID : avc1Codec ID/Info : Advanced Video CodingDuration : 24mn 10sBit rate : 3 072 KbpsMaximum bit rate : 17.5 MbpsWidth : 1 920 pixelsHeight : 1 080 pixelsDisplay aspect ratio : 16:9Frame rate mode : ConstantFrame rate : 23.976 fpsColor space : YUVChroma subsampling : 4:2:0Bit depth : 8 bitsScan type : ProgressiveBits/(Pixel*Frame) : 0.062Stream size : 529 MiB (96%)Writing library : x264 core 120 r2120 0c7dab9Encoding settings : cabac=1 / ref=4 / deblock=1:1:1 / analyse=0x3:0x113 / me=umh / subme=8 / psy=1 / psy_rd=0.40:0.00 / mixed_ref=1 / me_range=16 / chroma_me=1 / trellis=1 / 8x8dct=1 / cqm=0 / deadzone=21,11 / fast_pskip=1 / chroma_qp_offset=-2 / threads=8 / sliced_threads=0 / nr=0 / decimate=1 / interlaced=0 / bluray_compat=0 / constrained_intra=0 / bframes=3 / b_pyramid=2 / b_adapt=2 / b_bias=0 / direct=3 / weightb=1 / open_gop=0 / weightp=2 / keyint=250 / keyint_min=23 / scenecut=40 / intra_refresh=0 / rc_lookahead=50 / rc=2pass / mbtree=1 / bitrate=3072 / ratetol=1.0 / qcomp=0.60 / qpmin=0 / qpmax=69 / qpstep=4 / cplxblur=20.0 / qblur=0.5 / vbv_maxrate=6144 / vbv_bufsize=15360 / nal_hrd=none / ip_ratio=1.40 / aq=1:0.60

AudioID : 2Format : AACFormat/Info : Advanced Audio CodecFormat profile : LCCodec ID : 40Duration : 24mn 10sBit rate mode : VariableBit rate : 128 KbpsMaximum bit rate : 140 KbpsChannel(s) : 2 channelsChannel positions : Front: L RSampling rate : 44.1 KHzCompression mode : LossyStream size : 22.1 MiB (4%)

Menu00:00:00.000 : Avant00:02:07.127 : A-part00:07:32.118 : B-part00:22:40.526 : ED
01. Пчела Карен, часть первая
02. Пчела Карен, часть вторая
03. Пчела Карен, часть третья
04. Пчела Карен, часть четвёртая
05. Пчела Карен, часть пятая
06. Пчела Карен, часть шестая
07. Пчела Карен, часть седьмая
08. Феникс Цукихи, часть первая
09. Феникс Цукихи, часть вторая
10. Феникс Цукихи, часть третья
11. Феникс Цукихи, часть четвёртая


Трекер:  [ 07-Июн-2012 19:27 ]

  

Скачать .torrent

Размер .torrent файла 18 KB


Размер: 5.93 GB
Хэш (hash) релиза: 40b28ceca4853d7c06687885b119775e59f7c287
Подписка на обновления:

Торренты, похожие на Истории подделок Nisemonogatari скачать торрент

Форум Название Автор Размер S L Добавлен
Аниме | HD Rips ·· Истории подделок / Nisemonogatari [TV] [без хардсаба] [11 из 11] [RUS(ext),JAP+SUB] [2012 г., романтика, мистика, школа, комедия, эччи, HDTVRip] [720p] L 49751412124.63 GB 0 0 1364554305

13:51

29-Мар-13

Аниме | HD Rips ·· Истории подделок / Nisemonogatari (Симбо Акиюки) [TV] [без хардсаба] [11 из 11] [RUS(int), JAP+SUB] [2012 г., приключения, HDTVRip] [720p] L 46758454344.35 GB 0 0 1364554299

13:51

29-Мар-13

Аниме | Rips ·· Истории подделок / Nisemonogatari (Симбо Акиюки) [TV] [11 из 11] [Без хардсаба] [JAP+SUB] [2012., приключения HDTVRip] [480p] L 24572952972.29 GB 0 0 1364554290

13:51

29-Мар-13

Аниме | HD Rips ·· Истории Подделок / Nisemonogatari [TV] [01-11 из 11] [Без хардсаба] [RUS(int), JAP] [2012 г., приключения, HDTVRip] [720p] L 37128456163.46 GB 0 0 1364554284

13:51

29-Мар-13

Аниме | HD Rips ·· Истории подделок / Nisemonogatari [TV] [1-11 из 11] [Rus(ext), Jap+Sub] [2012,комедия, мистика, этти, BDRip] [720] Polarnik 1336301298712.45 GB 0 0 1353675240

15:54

23-Ноя-12

Аниме | HD Rips ·· Истории подделок / Nisemonogatari [TV] [без хардсаба] [11 из 11] [RUS(int),JAP] [2012 г., романтика, мистика, школа, комедия, мистика, этти, HDTVRip] [720p] L 41031585973.82 GB 2 0 1332996720

07:52

29-Мар-12

Аниме | Rips ·· История подделок / Nisemonogatari [TV] [1 из 11] [RUS(int), JAP+SUB] [2012] [приключения] [HDTVRip] [720p] [Любительская] Kogarasi 282700224270 MB 0 0 1327187220

02:07

22-Янв-12

Обои, артбуки и др. ·· Bakemonogatari + Nisemonogatari / Истории монстров + Истории подделок [Wallpapers][Art][Scans][Cosplay] [JPG, PNG, aniGIF] Galfimbul 32061206272.99 GB 0 0 1363617208

17:33

18-Мар-13

Аниме | HD Rips ·· Истории подделок / Impostory / Nisemonogatari (Симбо Акиюки) [TV] [11 из 11] [без хардсаба] [JAP, SUB] [2012 г., комедия, этти, мистика, BDRip] [1080p] L 1948309264318.15 GB 0 0 1364554330

13:52

29-Мар-13

Аниме | Blu-Ray и BDRemux ·· Истории подделок / Impostory / Nisemonogatari (Симбо Акиюки) [TV] [11 из 11] [без хардсаба] [RUS(ext), JAP+SUB] [2012 г., комедия, мистика, этти, BDRemux] [1080p] Galfimbul 8421698168578.43 GB 0 0 1354711620

15:47

5-Дек-12

Еще никто не оставлял запись к записи скачать торрент Истории подделок Nisemonogatari . Будь первым!

!Обратная связь