Скачать через торрент музыку Elvis Presley - Elvis Double Features бесплатно без регистрации torrent

Если у вас наблюдаются проблемы со скриншотами, переходом по ссылками, скачиванием торрентов - проблемы в блокировщике рекламы AdBlock. #хорошегоДня!


Статистика раздачи
Размер:  1.14 GB   |    Зарегистрирован:  5 лет 2 месяца   |    .torrent скачан:  20 раз   |   
Раздают:  1  
   
Загрузка...
 
Автор Сообщение

Umakiro

avatar Umakiro


Elvis Presley -=1993=- Elvis Double Features (4CD BOXSET)

Жанр: Soundtrack, Rock & Roll
Страна-производитель диска: США
Год издания: 1993
Издатель (лейбл): RCA
Номер по каталогу: 07863 61835-2
Страна: США
Аудиокодек: APE (*.ape)
Тип рипа: image+.cue
Битрейт аудио: lossless
Продолжительность: 03:14:49
Источник (релизер): личная коллекция
Наличие сканов в содержимом раздачи: да (в раздаче качество выше, чем в превьюшках)
Треклист:
01 - King Of The Whole Wide World [2:42]
02 - This Is Living [1:45]
03 - Riding The Rainbow [1:39]
04 - Home Is Where The Heart Is [2:34]
05 - I Got Lucky [2:12]
06 - A Whistling Tune [3:19]
07 - Girls, Girls, Girls [2:32]
08 - I Don't Wanna Be Tied [2:06]
09 - Where Do You Come From [2:07]
10 - I Don't Want To [2:40]
11 - We'll Be Together [2:17]
12 - A Boy Like Me, A Girl Like You [2:20]
13 - Earth Boy [2:22]
14 - Return To Sender [2:08]
15 - Because Of Love [2:32]
16 - Thanks To The Rolling Sea [1:38]
17 - Song Of The Shrimp [2:21]
18 - The Walls Have Ears [2:31]
19 - We're Coming In Loaded [1:31]
20 - Mama [1:00]
21 - Plantation Rock [1:51]
22 - Dainty Little Moonbeams [0:57]
23 - Girls! Girls! Girls! (End Title Version) [0:52]
  
Exact Audio Copy V0.99 prebeta 5 from 4. May 2009

Отчёт EAC об извлечении, выполненном 3. июня 2012, 18:40

Elvis Presley / Double Features: Kid Galahad & Girls, Girls, Girls!

Дисковод: ASUS DRW-24B1ST Adapter: 0 ID: 0

Режим чтения : ДостоверностьИспользование точного потока : ДаОтключение кэша аудио : ДаИспользование указателей C2 : Нет

Коррекция смещения при чтении : 6Способность читать области Lead-in и Lead-out : НетЗаполнение пропущенных сэмплов тишиной : ДаУдаление блоков с тишиной в начале и конце : НетПри вычислениях CRC использовались нулевые сэмплы : ДаИнтерфейс : Встроенный Win32-интерфейс для Win NT/2000

Выходной формат : Внутренние WAV-операцииФормат сэмплов : 44.100 Гц; 16 бит; стерео

TOC извлечённого CD

Трек | Старт | Длительность | Начальный сектор | Конечный сектор --------------------------------------------------------------------- 1 | 0:00.00 | 2:42.37 | 0 | 12186 2 | 2:42.37 | 1:45.20 | 12187 | 20081 3 | 4:27.57 | 1:39.13 | 20082 | 27519 4 | 6:06.70 | 2:33.57 | 27520 | 39051 5 | 8:40.52 | 2:11.53 | 39052 | 48929 6 | 10:52.30 | 3:19.32 | 48930 | 63886 7 | 14:11.62 | 2:32.20 | 63887 | 75306 8 | 16:44.07 | 2:06.33 | 75307 | 84789 9 | 18:50.40 | 2:06.52 | 84790 | 94291 10 | 20:57.17 | 2:39.73 | 94292 | 106289 11 | 23:37.15 | 2:16.52 | 106290 | 116541 12 | 25:53.67 | 2:19.48 | 116542 | 127014 13 | 28:13.40 | 2:21.67 | 127015 | 137656 14 | 30:35.32 | 2:07.60 | 137657 | 147241 15 | 32:43.17 | 2:31.65 | 147242 | 158631 16 | 35:15.07 | 1:38.18 | 158632 | 165999 17 | 36:53.25 | 2:20.47 | 166000 | 176546 18 | 39:13.72 | 2:31.28 | 176547 | 187899 19 | 41:45.25 | 1:30.70 | 187900 | 194719 20 | 43:16.20 | 0:59.57 | 194720 | 199201 21 | 44:16.02 | 1:50.60 | 199202 | 207511 22 | 46:06.62 | 0:57.25 | 207512 | 211811 23 | 47:04.12 | 0:52.03 | 211812 | 215714

Характеристики диапазона извлечения и сообщения об ошибках

Выбранный диапазон

Имя файла J:\=НА РАЗБОР=\!=! EXTRACT\Elvis Presley (=1993=) Double Features - Kid Galahad & Girls, Girls, Girls!.wav

Пиковый уровень 92.2 % Качество диапазона 100.0 % CRC теста E080A838 CRC копии E080A838 Копирование... OK

Ошибок не произошло

AccurateRip: сводка

Трек 1 точное извлечение (доверие 4) [2BC477E9]Трек 2 точное извлечение (доверие 4) [628ACE94]Трек 3 точное извлечение (доверие 4) [46FE3A2E]Трек 4 точное извлечение (доверие 4) [F5EFE996]Трек 5 точное извлечение (доверие 4) [B68A61C3]Трек 6 точное извлечение (доверие 4) [6A573709]Трек 7 точное извлечение (доверие 4) [E5568DAE]Трек 8 точное извлечение (доверие 4) [3174D8AF]Трек 9 точное извлечение (доверие 4) [E77B0B7B]Трек 10 точное извлечение (доверие 4) [08834216]Трек 11 точное извлечение (доверие 4) [471240C2]Трек 12 точное извлечение (доверие 4) [1B7203E6]Трек 13 точное извлечение (доверие 4) [C3714EF0]Трек 14 точное извлечение (доверие 4) [360DEA4B]Трек 15 точное извлечение (доверие 4) [B0C0DCDE]Трек 16 точное извлечение (доверие 4) [1A234305]Трек 17 точное извлечение (доверие 4) [74C88FD3]Трек 18 точное извлечение (доверие 4) [EC42BAB8]Трек 19 точное извлечение (доверие 4) [22145C34]Трек 20 точное извлечение (доверие 4) [621C1FB5]Трек 21 точное извлечение (доверие 4) [DF6A004E]Трек 22 точное извлечение (доверие 4) [03CCC6DF]Трек 23 точное извлечение (доверие 4) [DC7A60E9]

Все треки извлечены точно

Конец отчёта
01 - Beyond The Bend [1:51]
02 - Relax [2:21]
03 - Take Me To The Fair [1:36]
04 - They Remind Me Too Much Of You [2:32]
05 - One Broken Heart For Sale (film Version) [2:25]
06 - I'm Falling In Love Tonight [1:41]
07 - Cotton Candy Land [1:35]
08 - A World Of Our Own [2:16]
09 - How Would You Like To Be [3:28]
10 - Happy Ending [2:10]
11 - One Broken Heart For Sale [1:51]
12 - Fun In Acapulco [2:30]
13 - Vino, Dinero Y Amor [1:56]
14 - Mexico [2:00]
15 - El Toro [2:43]
16 - Marguerita [2:42]
17 - The Bullfighter Was A Lady [2:04]
18 - No Room To Rhumba In A Sports Car [1:53]
19 - I Think I'm Gonna Like It Here [2:53]
20 - Bossa Nova Baby [2:03]
21 - You Can't Say No In Acapulco [1:55]
22 - Guadalajara [2:44]
  
Exact Audio Copy V0.99 prebeta 5 from 4. May 2009

Отчёт EAC об извлечении, выполненном 3. июня 2012, 18:06

Elvis Presley / Double Features: It Happened at the World's Fair & Fun In Acapulco

Дисковод: ASUS DRW-24B1ST Adapter: 0 ID: 0

Режим чтения : ДостоверностьИспользование точного потока : ДаОтключение кэша аудио : ДаИспользование указателей C2 : Нет

Коррекция смещения при чтении : 6Способность читать области Lead-in и Lead-out : НетЗаполнение пропущенных сэмплов тишиной : ДаУдаление блоков с тишиной в начале и конце : НетПри вычислениях CRC использовались нулевые сэмплы : ДаИнтерфейс : Встроенный Win32-интерфейс для Win NT/2000

Выходной формат : Внутренние WAV-операцииФормат сэмплов : 44.100 Гц; 16 бит; стерео

TOC извлечённого CD

Трек | Старт | Длительность | Начальный сектор | Конечный сектор --------------------------------------------------------------------- 1 | 0:00.00 | 1:51.30 | 0 | 8354 2 | 1:51.30 | 2:21.22 | 8355 | 18951 3 | 4:12.52 | 1:36.00 | 18952 | 26151 4 | 5:48.52 | 2:32.28 | 26152 | 37579 5 | 8:21.05 | 2:24.70 | 37580 | 48449 6 | 10:46.00 | 1:41.25 | 48450 | 56049 7 | 12:27.25 | 1:34.67 | 56050 | 63166 8 | 14:02.17 | 2:15.53 | 63167 | 73344 9 | 16:17.70 | 3:28.30 | 73345 | 88974 10 | 19:46.25 | 2:10.12 | 88975 | 98736 11 | 21:56.37 | 1:50.50 | 98737 | 107036 12 | 23:47.12 | 2:30.20 | 107037 | 118306 13 | 26:17.32 | 1:55.50 | 118307 | 126981 14 | 28:13.07 | 1:59.68 | 126982 | 135974 15 | 30:13.00 | 2:42.67 | 135975 | 148191 16 | 32:55.67 | 2:42.00 | 148192 | 160341 17 | 35:37.67 | 2:04.05 | 160342 | 169646 18 | 37:41.72 | 1:53.30 | 169647 | 178151 19 | 39:35.27 | 2:53.03 | 178152 | 191129 20 | 42:28.30 | 2:03.27 | 191130 | 200381 21 | 44:31.57 | 1:55.33 | 200382 | 209039 22 | 46:27.15 | 2:43.45 | 209040 | 221309

Характеристики диапазона извлечения и сообщения об ошибках

Выбранный диапазон

Имя файла J:\=НА РАЗБОР=\!=! EXTRACT\Elvis Presley (=1993=) Double Features - It Happened at the World's Fair & Fun In Acapulco.wav

Пиковый уровень 89.6 % Качество диапазона 100.0 % CRC теста 55689BB6 CRC копии 55689BB6 Копирование... OK

Ошибок не произошло

AccurateRip: сводка

Трек 1 точное извлечение (доверие 4) [A21A2D27]Трек 2 точное извлечение (доверие 4) [46194212]Трек 3 точное извлечение (доверие 4) [F8BEDF55]Трек 4 точное извлечение (доверие 4) [1B626B5B]Трек 5 точное извлечение (доверие 4) [3A743E39]Трек 6 точное извлечение (доверие 4) [210991F1]Трек 7 точное извлечение (доверие 4) [369147A3]Трек 8 точное извлечение (доверие 4) [CB027B83]Трек 9 точное извлечение (доверие 4) [4706D6EC]Трек 10 точное извлечение (доверие 4) [45D4B937]Трек 11 точное извлечение (доверие 4) [4A5AAF68]Трек 12 точное извлечение (доверие 4) [53EC0D64]Трек 13 точное извлечение (доверие 4) [A363619B]Трек 14 точное извлечение (доверие 4) [000CAC1E]Трек 15 точное извлечение (доверие 4) [B2C5A61E]Трек 16 точное извлечение (доверие 4) [12164A2C]Трек 17 точное извлечение (доверие 4) [2BD4234D]Трек 18 точное извлечение (доверие 4) [AEB96612]Трек 19 точное извлечение (доверие 4) [91B95CFD]Трек 20 точное извлечение (доверие 4) [0E8D85D5]Трек 21 точное извлечение (доверие 4) [CC25C24F]Трек 22 точное извлечение (доверие 4) [935978A3]

Все треки извлечены точно

Конец отчёта
01 - Viva Las Vegas [2:22]
02 - If You Think I Don't Need You [2:05]
03 - I Need Somebody To Lean On [2:52]
04 - You're The Boss [2:32]
05 - What'd I Say [3:03]
06 - Do The Vega [2:24]
07 - C'mon Everybody [2:18]
08 - The Lady Loves Me [3:43]
09 - Night Life [1:52]
10 - Today, Tomorrow and Forever [3:24]
11 - The Yellow Rose Of Texas/The Eyes Of Texas [2:48]
12 - Santa Lucia [1:15]
13 - Roustabout [1:58]
14 - Little Egypt [2:17]
15 - Poison Ivy League [2:04]
16 - Hard Knocks [1:44]
17 - It's a Wonderful World [1:50]
18 - Big Love Big Heartache [1:59]
19 - One Track Heart [2:17]
20 - It's Carnival Time [1:34]
21 - Carny Town [1:21]
22 - There's A Brand New Day On The Horizon [2:02]
23 - Wheels On My Heels [1:19]
  
Exact Audio Copy V0.99 prebeta 5 from 4. May 2009

Отчёт EAC об извлечении, выполненном 3. июня 2012, 19:26

Elvis Presley / Double Features: Viva Las Vegas & Roustabout

Дисковод: ASUS DRW-24B1ST Adapter: 0 ID: 0

Режим чтения : ДостоверностьИспользование точного потока : ДаОтключение кэша аудио : ДаИспользование указателей C2 : Нет

Коррекция смещения при чтении : 6Способность читать области Lead-in и Lead-out : НетЗаполнение пропущенных сэмплов тишиной : ДаУдаление блоков с тишиной в начале и конце : НетПри вычислениях CRC использовались нулевые сэмплы : ДаИнтерфейс : Встроенный Win32-интерфейс для Win NT/2000

Выходной формат : Внутренние WAV-операцииФормат сэмплов : 44.100 Гц; 16 бит; стерео

TOC извлечённого CD

Трек | Старт | Длительность | Начальный сектор | Конечный сектор --------------------------------------------------------------------- 1 | 0:00.00 | 2:21.62 | 0 | 10636 2 | 2:21.62 | 2:05.13 | 10637 | 20024 3 | 4:27.00 | 2:52.00 | 20025 | 32924 4 | 7:19.00 | 2:32.27 | 32925 | 44351 5 | 9:51.27 | 3:03.33 | 44352 | 58109 6 | 12:54.60 | 2:23.57 | 58110 | 68891 7 | 15:18.42 | 2:18.08 | 68892 | 79249 8 | 17:36.50 | 3:43.10 | 79250 | 95984 9 | 21:19.60 | 1:52.17 | 95985 | 104401 10 | 23:12.02 | 3:24.20 | 104402 | 119721 11 | 26:36.22 | 2:48.33 | 119722 | 132354 12 | 29:24.55 | 1:15.15 | 132355 | 137994 13 | 30:39.70 | 1:58.05 | 137995 | 146849 14 | 32:38.00 | 2:17.22 | 146850 | 157146 15 | 34:55.22 | 2:03.70 | 157147 | 166441 16 | 36:59.17 | 1:43.53 | 166442 | 174219 17 | 38:42.70 | 1:49.50 | 174220 | 182444 18 | 40:32.45 | 1:59.17 | 182445 | 191386 19 | 42:31.62 | 2:17.05 | 191387 | 201666 20 | 44:48.67 | 1:34.00 | 201667 | 208716 21 | 46:22.67 | 1:20.43 | 208717 | 214759 22 | 47:43.35 | 2:01.40 | 214760 | 223874 23 | 49:45.00 | 1:19.32 | 223875 | 229831

Характеристики диапазона извлечения и сообщения об ошибках

Выбранный диапазон

Имя файла J:\=НА РАЗБОР=\!=! EXTRACT\Elvis Presley (=1993=) Double Features - Viva Las Vegas & Roustabout.wav

Пиковый уровень 100.0 % Качество диапазона 100.0 % CRC теста C0DA9904 CRC копии C0DA9904 Копирование... OK

Ошибок не произошло

AccurateRip: сводка

Трек 1 точное извлечение (доверие 4) [8114849E]Трек 2 точное извлечение (доверие 4) [7536B85D]Трек 3 точное извлечение (доверие 4) [5E9A0544]Трек 4 точное извлечение (доверие 4) [CD3DA5D5]Трек 5 точное извлечение (доверие 4) [5FDF9990]Трек 6 точное извлечение (доверие 4) [97A92BA3]Трек 7 точное извлечение (доверие 4) [D5FF7B87]Трек 8 точное извлечение (доверие 4) [58EDFD1C]Трек 9 точное извлечение (доверие 4) [5AFED045]Трек 10 точное извлечение (доверие 4) [7AD2B46F]Трек 11 точное извлечение (доверие 4) [ABFBCAE4]Трек 12 точное извлечение (доверие 4) [BF9B3501]Трек 13 точное извлечение (доверие 4) [BD263416]Трек 14 точное извлечение (доверие 4) [E93AD983]Трек 15 точное извлечение (доверие 4) [130D2420]Трек 16 точное извлечение (доверие 4) [66068551]Трек 17 точное извлечение (доверие 4) [2450E60C]Трек 18 точное извлечение (доверие 4) [41D4976A]Трек 19 точное извлечение (доверие 4) [039C006C]Трек 20 точное извлечение (доверие 4) [E6613CE9]Трек 21 точное извлечение (доверие 4) [EF484B7D]Трек 22 точное извлечение (доверие 4) [E1745B9F]Трек 23 точное извлечение (доверие 4) [E07D4139]

Все треки извлечены точно

Конец отчёта
01 - Harem Holiday [2:20]
02 - My Desert Serenade [1:49]
03 - Go East / Young Man [2:28]
04 - Mirage [2:27]
05 - Kismet [2:10]
06 - Shake That Tambourine [2:04]
07 - Hey Little Girl [2:17]
08 - Golden Coins [1:56]
09 - So Close, Yet So Far (From Paradise) [3:03]
10 - Animal Instinct [2:15]
11 - Wisdom Of The Ages [2:01]
12 - Girl Happy [2:09]
13 - Spring Fever [1:54]
14 - Fort Lauderdale Chamber of Commerce [1:33]
15 - Startin' Tonight [1:21]
16 - Wolf Call [1:28]
17 - Do Not Disturb [1:54]
18 - Cross My Heart and Hope To Die [1:57]
19 - The Meanest Girl In Town [1:57]
20 - Do The Clam [3:21]
21 - Puppet On A String [2:41]
22 - I've Got To Find My Baby [1:35]
  
Exact Audio Copy V0.99 prebeta 5 from 4. May 2009

Отчёт EAC об извлечении, выполненном 3. июня 2012, 17:42

Elvis Presley / Double Features: Harem Holiday & Girl Happy

Дисковод: ASUS DRW-24B1ST Adapter: 0 ID: 0

Режим чтения : ДостоверностьИспользование точного потока : ДаОтключение кэша аудио : ДаИспользование указателей C2 : Нет

Коррекция смещения при чтении : 6Способность читать области Lead-in и Lead-out : НетЗаполнение пропущенных сэмплов тишиной : ДаУдаление блоков с тишиной в начале и конце : НетПри вычислениях CRC использовались нулевые сэмплы : ДаИнтерфейс : Встроенный Win32-интерфейс для Win NT/2000

Выходной формат : Внутренние WAV-операцииФормат сэмплов : 44.100 Гц; 16 бит; стерео

TOC извлечённого CD

Трек | Старт | Длительность | Начальный сектор | Конечный сектор --------------------------------------------------------------------- 1 | 0:00.00 | 2:19.62 | 0 | 10486 2 | 2:19.62 | 1:48.68 | 10487 | 18654 3 | 4:08.55 | 2:27.52 | 18655 | 29731 4 | 6:36.32 | 2:27.13 | 29732 | 40769 5 | 9:03.45 | 2:10.25 | 40770 | 50544 6 | 11:13.70 | 2:03.40 | 50545 | 59809 7 | 13:17.35 | 2:16.60 | 59810 | 70069 8 | 15:34.20 | 1:56.25 | 70070 | 78794 9 | 17:30.45 | 3:02.40 | 78795 | 92484 10 | 20:33.10 | 2:14.65 | 92485 | 102599 11 | 22:48.00 | 2:01.00 | 102600 | 111674 12 | 24:49.00 | 2:09.00 | 111675 | 121349 13 | 26:58.00 | 1:53.62 | 121350 | 129886 14 | 28:51.62 | 1:32.53 | 129887 | 136839 15 | 30:24.40 | 1:21.12 | 136840 | 142926 16 | 31:45.52 | 1:28.23 | 142927 | 149549 17 | 33:14.00 | 1:53.40 | 149550 | 158064 18 | 35:07.40 | 1:56.45 | 158065 | 166809 19 | 37:04.10 | 1:56.42 | 166810 | 175551 20 | 39:00.52 | 3:21.00 | 175552 | 190626 21 | 42:21.52 | 2:41.23 | 190627 | 202724 22 | 45:03.00 | 1:35.05 | 202725 | 209854

Характеристики диапазона извлечения и сообщения об ошибках

Выбранный диапазон

Имя файла J:\=НА РАЗБОР=\!=! EXTRACT\Elvis Presley (=1993=) Double Features - Harem Holiday & Girl Happy.wav

Пиковый уровень 96.1 % Качество диапазона 100.0 % CRC теста 343FA41F CRC копии 343FA41F Копирование... OK

Ошибок не произошло

AccurateRip: сводка

Трек 1 точное извлечение (доверие 4) [76E8A45A]Трек 2 точное извлечение (доверие 4) [9473D46A]Трек 3 точное извлечение (доверие 4) [97FDB46D]Трек 4 точное извлечение (доверие 4) [2AB82966]Трек 5 точное извлечение (доверие 4) [B12AC8F0]Трек 6 точное извлечение (доверие 4) [D5B6A4E9]Трек 7 точное извлечение (доверие 4) [8E37FB0C]Трек 8 точное извлечение (доверие 4) [1B2E9D52]Трек 9 точное извлечение (доверие 4) [D8582156]Трек 10 точное извлечение (доверие 4) [95706BC6]Трек 11 точное извлечение (доверие 4) [EFBF5B04]Трек 12 точное извлечение (доверие 4) [075C1A8E]Трек 13 точное извлечение (доверие 4) [0E93D96F]Трек 14 точное извлечение (доверие 4) [E2506D60]Трек 15 точное извлечение (доверие 4) [A1772FCB]Трек 16 точное извлечение (доверие 4) [91DADED9]Трек 17 точное извлечение (доверие 4) [32D61103]Трек 18 точное извлечение (доверие 4) [8560FD35]Трек 19 точное извлечение (доверие 4) [41BF8ACE]Трек 20 точное извлечение (доверие 4) [CBC6C261]Трек 21 точное извлечение (доверие 4) [0689222E]Трек 22 точное извлечение (доверие 4) [E7F724B6]

Все треки извлечены точно

Конец отчёта
Э́лвис Ааро́н Пре́сли (англ. Elvis Aaron Presley; 8 января 1935 — 16 августа 1977) — американский певец и актёр, один из самых коммерчески успешных исполнителей популярной музыки XX века. Его известность настолько широка, что большинство людей называет его лишь по имени — «Элвис». С Элвисом Пресли также ассоциируется устойчивое словосочетание «Король рок-н-ролла» (в Америке зачастую просто «Король» — англ. The King). Находится на третьем месте среди величайших исполнителей всех времён и народов и величайших вокалистов по версии журнала Rolling Stone.


Трекер:  [ 04-Июн-2012 17:30 ]

  

Скачать .torrent

Размер .torrent файла 17 KB


Размер: 1.14 GB
Хэш (hash) релиза: 0588328b405dd70c3a1762b88d25b7d15f256489

Еще никто не оставлял запись к записи скачать торрент Elvis Presley - Elvis Double Features . Будь первым!

!Обратная связь