Скачать через торрент музыку Korn - Rock Am Ring бесплатно без регистрации torrent

Если у вас наблюдаются проблемы со скриншотами, переходом по ссылками, скачиванием торрентов - проблемы в блокировщике рекламы AdBlock. #хорошегоДня!


Статистика раздачи
Размер:  1.48 GB   |    Зарегистрирован:  5 лет 4 месяца   |    .torrent скачан:  47 раз   |   
Раздают:  1  
   
Загрузка...
 
Автор Сообщение

Galfimbul

avatar Galfimbul


Korn - Rock Am Ring

Страна: USA / Germany
Жанр: Nu Metal
Продолжительность: 01:07:19
Описание: Nürburg, Germany, 2007

Контейнер: MKV
Видео кодек: H.264
Аудио кодек: AC3 / MP2
Видео: Matroska, 688x560, 16:9, ~2500 kbps, 25 fps
Аудио 1: AC3, 448 kbps, 48 kHz, 2 CH
Аудио 2: MP2, 192 kbps, 48 kHz, 2 CH (Громкость немного выше)
Разбивка на главы по трекам присутствует, главы подписаны
01 - Here To Stay
02 - Twist
03 - Good God
04 - Coming Undone
05 - Falling Away From Me
06 - Somebody Someone
07 - Right Now
08 - Shoots and Ladders / One
09 - Divine
10 - Got The Life
11 - Evolution
12 - Y'all Want A Single
13 - Twisted Transistor
14 - Freak On A Leash
15 - Clown
16 - Blind
General
Unique ID : 177344715255795939917997247043212653621 (0x856B5989CE3B8EC29E1BB493F513B435)
Complete name : D:\Видео\KORN\Korn - Rock Am Ring [2007 г., Nu Metal, SATRip]\Korn - Rock Am Ring [2007 г., Nu Metal, SATRip].mkv
Format : Matroska
Format version : Version 2
File size : 1.48 GiB
Duration : 1h 7mn
Overall bit rate : 3 149 Kbps
Movie name : Korn - Rock Am Ring [2007 г., Nu Metal, SATRip]
Encoded date : UTC 2012-02-25 16:08:48
Writing application : mkvmerge v5.3.0 ('I could have danced') built on Feb 9 2012 10:38:07
Writing library : libebml v1.2.3 + libmatroska v1.3.0

Video
ID : 1
Format : AVC
Format/Info : Advanced Video Codec
Format profile : <a href="mailto:High@L4.1" class="postLink">High@L4.1</a>
Format settings, CABAC : Yes
Format settings, ReFrames : 9 frames
Codec ID : V_MPEG4/ISO/AVC
Duration : 1h 7mn
Bit rate : 2 446 Kbps
Width : 688 pixels
Height : 560 pixels
Display aspect ratio : 16:9
Original display aspect ratio : 16:9
Frame rate mode : Variable
Frame rate : 25.000 fps
Color space : YUV
Chroma subsampling : 4:2:0
Bit depth : 8 bits
Scan type : Progressive
Bits/(Pixel*Frame) : 0.254
Stream size : 1.15 GiB (78%)
Title : Korn - Rock Am Ring [2007 г., Nu Metal, SATRip]
Language : English
Default : Yes
Forced : No

Audio #1
ID : 2
Format : AC-3
Format/Info : Audio Coding 3
Mode extension : CM (complete main)
Codec ID : A_AC3
Duration : 1h 7mn
Bit rate mode : Constant
Bit rate : 448 Kbps
Channel(s) : 2 channels
Channel positions : Front: L R
Sampling rate : 48.0 KHz
Bit depth : 16 bits
Compression mode : Lossy
Delay relative to video : 24ms
Stream size : 216 MiB (14%)
Title : AC3 [2.0 CH]
Language : English
Default : Yes
Forced : No

Audio #2
ID : 3
Format : MPEG Audio
Format version : Version 1
Format profile : Layer 2
Codec ID : A_MPEG/L2
Codec ID/Hint : MP2
Duration : 1h 7mn
Bit rate mode : Constant
Bit rate : 192 Kbps
Channel(s) : 2 channels
Sampling rate : 48.0 KHz
Compression mode : Lossy
Delay relative to video : 8ms
Stream size : 92.5 MiB (6%)
Title : MP2 [2.0 CH]
Language : English
Default : No
Forced : No

Menu
00:00:00.500 : en:Here to Stay
00:03:55.000 : en:Twist
00:04:46.000 : en:Good Dod
00:08:26.000 : en:Coming Undone
00:12:14.500 : en:Falling Away From Me
00:17:14.000 : en:Somebody Someone
00:22:38.400 : en:Right Now
00:26:48.000 : en:Schoots and Ladders / One
00:32:50.900 : en:Divine
00:36:03.200 : en:Got the Life
00:41:04.500 : en:Evolution
00:44:58.650 : en:Y'All Want a Single
00:48:09.300 : en:Twisted Transistor (Intro)
00:49:12.700 : en:Twisted Transistor
00:52:40.000 : en:Freak on a Leash
00:56:57.000 : en:Clown
01:01:46.200 : en:Blind


Трекер:  [ 04-Июн-2012 12:01 ]

  

Скачать .torrent

Размер .torrent файла 30 KB


Размер: 1.48 GB
Хэш (hash) релиза: 2048791cbde09cdca21bc164dc009b4274b91d3d

Еще никто не оставлял запись к записи скачать торрент Korn - Rock Am Ring . Будь первым!

!Обратная связь