Скачать через торрент Шёпот сердца Whisper of the Heart Фильм бесплатно в хорошем качестве torrent

Скачивайте на UnionPeer.org фильмы через торрент без регистрации. Новинки кино в хорошем качестве через торрент. На UnionPeer.org можно скачать через торрент фильмы 2014 и 2015 годов. Самые новые фильмы.

Скачать торрент Шёпот сердца Whisper of the Heart бесплатно через .torrent фильм мультфильм сериал

Если у вас наблюдаются проблемы со скриншотами, переходом по ссылками, скачиванием торрентов - проблемы в блокировщике рекламы AdBlock. #хорошегоДня!


Статистика раздачи
Размер:  612 MB   |    Зарегистрирован:  5 лет 2 месяца   |    .torrent скачан:  59 раз   |   
Раздают:  1  
   
Загрузка...
 
Автор Сообщение

Galfimbul

avatar Galfimbul


Шёпот сердца
Оригинальное название:耳をすませば
Английское Название: Whisper of the Heart
Премьера: 15.07.1995
В российском прокате: 29.05.2008
Страна: Япония
Жанр: романтика, повседневность
Продолжительность: полнометражный фильм, 111 мин.
Перевод: профессиональный (многоголосый, закадровый),профессиональный (П.Гланц, И.Королева)
Режиссер: Кондо Ёсифуми
Снято по манге: Mimi wo Sumaseba
Автор оригинала: Хиираги Аой
Студия:
Описание: Школьница средних классов Сидзуку Цукисима обожает читать, «глотая» книги одну за другой. Однако какую бы книжку она не брала из школьной библиотеки, в формуляре прочитавших её прежде значится имя Сэйдзи Амасава. После знакомства с этим необычным пареньком, ставшем её первой любовью, Сидзуку узнаёт много нового и о себе самой, о своих целях в жизни - открытие, которое необратимо изменит её судьбу.
© World Art
Главные персонажи — Сэйдзи
Амасава и Сидзуки Цукисима
На первый взгляд, «Whisper of the Heart» очень напоминает режиссуру Такахаты Исао. Тут нет сюжета, как его не было в «Only Yesterday» или &laquoMy Neighbors the Yamadas». Вся история «Whisper of the Heart» строится на знакомстве зрителя с папой, мамой и двумя сестренками, а потом, когда зритель уже более или менее притрется к очередной семейке «ямад», ему показывают их отношения и реакции на разнообразные вещи и явления. Такой способ повествования совсем не нов для директора, чье имя начинается с большой буквы «Т», но весьма необычен для Миядзаки. А ведь именно на него легло бремя писать сценарий для этого фильма и делать к нему же раскадровку. Всем нам хорошо известно, что господин Миядзаки любит широту и простор для своих историй. Он любит создавать вещи, в которых можно хорошенько развернуться, в которых можно смело устраивать полеты на метлах или драконах, в которых можно без проблем посадить свинью за штурвал самолета. Но тут, тут свинью в самолет посадить было нельзя, это как положить ноги на стол перед зрителем. Выбрав реализм, приходится жертвовать многим, зато появляется возможность рассуждать, показывать зрителю реальную жизнь или хотя бы жизнь такой, какой бы ее хотелось видеть автору.

Странно, но первое, что мы видим в «Whisper of the Heart» — строение, чем-то напоминающее нашу «хрущевку» с кучей балкончиков-сушилок для маек и трусов. В этом доме и живет та самая обычная семейка, которую для нас выдумал Миядзаки. Папа пашет в библиотеке, домой ездит на велосипеде. Мама занята по горло важными делами. Старшая сестра ведет себя так, как и должна вести себя старшая сестра. Зато младшенькая являет собой саму жизнь, она просто чудо небесное. Когда она видит летящий дирижабль, то удивляется: «Как же он низко летит». Идя по улице, она задорно комментирует: «Как сегодня жарко», по пути здороваясь с местным псом. А зайдя в метро, заводит разговор, но не с кем попало, а с самым толстым и безмолвным котом. Побеседовав с котом и сделав еще тысячу бессмысленных восклицаний, она сочиняет очаровательную песенку про сельскую дорогу и исполняет ее, хлопая в ладоши.

Признаться, я ожидал чего-то нового от этого союза мультипликаторов, но совсем не того, что предстало взору. Миядзаки и тут не удержался от эпизодического полета, и тут он не сумел обойтись без сказки. Однако, на мой взгляд, это совсем не помешало «Whisper of the Heart» быть очень реалистичным, трогательным и просто хорошим фильмом. Безусловно, господин Кондо с поставленной задачей справился превосходно. В конце концов, достойный ученик достойного мастера сумел-таки сделать достойный фильм.http://www.world-art.ru/animation/animation_review.php?id=101

Качество: HDTVRip
Формат: MP4
Видео кодек: Другой MPEG4
Аудио кодек: AAC
Видео: MPEG4 Video (H264) 480x272 23.98fps 510 Kbps
Аудио: AAC 48000Hz stereo 128 kbps RUS
Аудио: AAC 44100Hz stereo 128 kbps RUS
General
Complete name : L:\Film c\моя раздача\Шёпот сердца\Шёпот сердца Whisper of the Heart\Whisper of the Heart (1995) HDTV 720p.mp4
Format : MPEG-4
Format profile : Base Media
Codec ID : isom
File size : 612 MiB
Duration : 1h 50mn
Overall bit rate : 771 Kbps
Encoded date : UTC 2011-03-23 19:42:31
Tagged date : UTC 2011-03-23 19:42:31

Video
ID : 1
Format : AVC
Format/Info : Advanced Video Codec
Format profile : <a href="mailto:Main@L3.0" class="postLink">Main@L3.0</a>
Format settings, CABAC : Yes
Format settings, ReFrames : 3 frames
Codec ID : avc1
Codec ID/Info : Advanced Video Coding
Duration : 1h 50mn
Bit rate mode : Variable
Bit rate : 510 Kbps
Maximum bit rate : 2 608 Kbps
Width : 480 pixels
Height : 272 pixels
Display aspect ratio : 16:9
Frame rate mode : Constant
Frame rate : 23.976 fps
Color space : YUV
Chroma subsampling : 4:2:0
Bit depth : 8 bits
Scan type : Progressive
Bits/(Pixel*Frame) : 0.163
Stream size : 405 MiB (66%)
Writing library : x264 core 114 r1913 5fd3dce
Encoding settings : cabac=1 / ref=3 / deblock=1:1:1 / analyse=0x1:0x131 / me=umh / subme=10 / psy=1 / psy_rd=1.00:0.00 / mixed_ref=1 / me_range=16 / chroma_me=1 / trellis=2 / 8x8dct=0 / cqm=0 / deadzone=21,11 / fast_pskip=0 / chroma_qp_offset=-2 / threads=3 / sliced_threads=0 / nr=0 / decimate=1 / interlaced=0 / constrained_intra=0 / bframes=3 / b_pyramid=0 / b_adapt=2 / b_bias=0 / direct=3 / weightb=1 / open_gop=0 / weightp=2 / keyint=250 / keyint_min=23 / scenecut=40 / intra_refresh=0 / rc_lookahead=60 / rc=2pass / mbtree=1 / bitrate=510 / ratetol=1.0 / qcomp=0.70 / qpmin=0 / qpmax=69 / qpstep=4 / cplxblur=20.0 / qblur=0.5 / ip_ratio=1.40 / aq=1:0.60
Encoded date : UTC 2011-03-23 00:25:01
Tagged date : UTC 2011-03-23 19:43:19

Audio #1
ID : 2
Format : AAC
Format/Info : Advanced Audio Codec
Format profile : LC
Codec ID : 40
Duration : 1h 50mn
Bit rate mode : Variable
Bit rate : 128 Kbps
Maximum bit rate : 149 Kbps
Channel(s) : 2 channels
Channel positions : Front: L R
Sampling rate : 48.0 KHz
Compression mode : Lossy
Stream size : 101 MiB (17%)
Encoded date : UTC 2011-03-23 19:42:53
Tagged date : UTC 2011-03-23 19:43:19

Audio #2
ID : 3
Format : AAC
Format/Info : Advanced Audio Codec
Format profile : LC
Codec ID : 40
Duration : 1h 50mn
Bit rate mode : Variable
Bit rate : 128 Kbps
Maximum bit rate : 159 Kbps
Channel(s) : 2 channels
Channel positions : Front: L R
Sampling rate : 44.1 KHz
Compression mode : Lossy
Stream size : 101 MiB (17%)
Encoded date : UTC 2011-03-23 19:43:08
Tagged date : UTC 2011-03-23 19:43:19


Трекер:  [ 07-Июн-2012 17:26 ]

  

Скачать .torrent

Размер .torrent файла 12 KB


Размер: 612 MB
Хэш (hash) релиза: 65850f26dcd8374fb0840eaffbf30a986134f252
Подписка на обновления:

Еще никто не оставлял запись к записи скачать торрент Шёпот сердца Whisper of the Heart . Будь первым!

!Обратная связь