Скачать через торрент [ANIME4PSP]Нодамэ Кантабиле Nodame Cantabile Фильм бесплатно в хорошем качестве torrent

Скачивайте на UnionPeer.org фильмы через торрент без регистрации. Новинки кино в хорошем качестве через торрент. На UnionPeer.org можно скачать через торрент фильмы 2014 и 2015 годов. Самые новые фильмы.

Скачать торрент [ANIME4PSP]Нодамэ Кантабиле Nodame Cantabile бесплатно через .torrent фильм мультфильм сериал

Если у вас наблюдаются проблемы со скриншотами, переходом по ссылками, скачиванием торрентов - проблемы в блокировщике рекламы AdBlock. #хорошегоДня!


Статистика раздачи
Размер:  2.44 GB   |    Зарегистрирован:  5 лет 5 месяцев   |    .torrent скачан:  38 раз   |   
Раздают:  1  
   
Загрузка...
 
Автор Сообщение

Galfimbul

avatar Galfimbul


Нодамэ Кантабиле
Оригинальное название: のだめカンタービレ
Английское название: Nodame Cantabile!
Год выпуска: 2007
Страна: Япония
Жанр: комедия, романтика, повседневность, сёдзё
Продолжительность: 23 эп.; 25 мин.
Перевод : Любительский двухголосый Valkrist & Keneretta
Русские субтитры: нет

Количество серий: 23 из 23
Режиссёр: Касай КэнъитиОтличия
Описание: Перед нами относительно редкий вид: музыкальное аниме, своего рода "мюзикл", но базой для него служит не современная музыка, а академическая классика. Это романтический сериал о студентах японской консерватории, в первую очередь о подающем большие надежды в качестве скрипача, пианиста и дирижёра (а также повара, бизнесмена, и кого угодно ещё) студента последнего курса Чияки и его знакомой, талантливой, но совершенно "не от мира сего" студентке предпоследнего курса Нодаме. Сериал снят в духе романтического реализма, с большим юмором и огромной любовью к музыке. Единственное, кому бы я не стал советовать смотреть это - тем, кого от классической музыки просто "воротит". Им сначала стоит пересмотреть свои вкусы.
© Hollow, World Art
Качество: DTVRip

Формат: MP4
Видео кодек: H.264
аудио кодек: ААС
Другие параметры видео: 480х272, 16:9, 29,970 кадр/сек, 512 Кбит/сек
Аудио Rus 1: 128 Кбит/сек, 44,1 КГц, 2 канала(ов)
Lesson 1
Lesson 2
Lesson 3
Lesson 4
Lesson 5
Lesson 6
Lesson 7
Lesson 8
Lesson 9
Lesson 10
Lesson 11
Lesson 12
Lesson 13
Lesson 14
Lesson 15
Lesson 16
Lesson 17
Lesson 18
Lesson 19
Lesson 20
Lesson 21
Lesson 22
Lesson 23
<!--/code_head--> <div class="c-body">Формат                           : MPEG-4
Профиль формата                  : Sony PSP
Идентификатор кодека             : MSNV
Размер файла                     : 109 Мбайт
Продолжительность                : 22 м.
Общий поток                      : 665 Кбит/сек

Видео
Идентификатор                    : 1
Формат                           : AVC
Формат/Информация                : Advanced Video Codec
Профиль формата                  : <a href="mailto:Main@L2.1" class="postLink">Main@L2.1</a>
Параметр CABAC формата           : Да
Параметр ReFrames формата        : 2 кадры
Идентификатор кодека             : avc1
Идентификатор кодека/Информация  : Advanced Video Coding
Продолжительность                : 22 м.
Вид битрейта                     : Переменный
Битрейт                          : 512 Кбит/сек
Ширина                           : 480 пикс.
Высота                           : 272 пикс.
Соотношение сторон               : 16:9
Режим частоты кадров             : Постоянный
Частота кадров                   : 29,970 кадр/сек
Цветовое пространство            : YUV
Подвыборка цветности             : 4:2:0
Битовая глубина                  : 8 бит
Тип развёртки                    : Прогрессивная
Бит/(Пиксели*Кадры)              : 0.131
Размер потока                    : 87,2 Мбайт (80%)
Библиотека кодирования           : x264 core 77
Настройки программы              : cabac=1 / ref=2 / deblock=0:0:0 / analyse=0x1:0 / me=dia / subme=8 / psy=1 / psy_rd=1.0:0.0 / mixed_ref=0 / me_range=16 / chroma_me=0 / trellis=0 / 8x8dct=0 / cqm=0 / deadzone=21,11 / chroma_qp_offset=-2 / threads=2 / nr=0 / decimate=1 / mbaff=0 / constrained_intra=0 / bframes=0 / keyint=250 / keyint_min=25 / scenecut=0 / rc_lookahead=40 / rc=abr / mbtree=1 / bitrate=512 / ratetol=1.0 / qcomp=0.60 / qpmin=10 / qpmax=51 / qpstep=4 / ip_ratio=1.41 / aq=1:1.00

Аудио
Идентификатор                    : 2
Формат                           : AAC
Формат/Информация                : Advanced Audio Codec
Профиль формата                  : LC
Идентификатор кодека             : 40
Продолжительность                : 22 м.
Вид битрейта                     : Переменный
Битрейт                          : 128 Кбит/сек
Канал(ы)                         : 2 канала(ов)
Расположение каналов             : Front: L R
Частота                          : 44,1 КГц
Метод сжатия                     : С потерями
Размер потока                    : 21,0 Мбайт (19%) <!--/code--><!--/code_wrap-->


Трекер:  [ 06-Июн-2012 10:41 ]

  

Скачать .torrent

Размер .torrent файла 30 KB


Размер: 2.44 GB
Хэш (hash) релиза: d902d6ef1ccab1b6fcde27058a65e8d21f01d305
Подписка на обновления:

Еще никто не оставлял запись к записи скачать торрент [ANIME4PSP]Нодамэ Кантабиле Nodame Cantabile . Будь первым!

!Обратная связь