Скачать через торрент Нодамэ Кантабиле Nodame Cantabile Фильм бесплатно в хорошем качестве torrent

Скачивайте на UnionPeer.org фильмы через торрент без регистрации. Новинки кино в хорошем качестве через торрент. На UnionPeer.org можно скачать через торрент фильмы 2014 и 2015 годов. Самые новые фильмы.

Скачать торрент Нодамэ Кантабиле Nodame Cantabile бесплатно через .torrent фильм мультфильм сериал

Если у вас наблюдаются проблемы со скриншотами, переходом по ссылками, скачиванием торрентов - проблемы в блокировщике рекламы AdBlock. #хорошегоДня!


Статистика раздачи
Размер:  1.15 GB   |    Зарегистрирован:  5 лет 5 месяцев   |    .torrent скачан:  34 раза   |   
Раздают:  1  
   
Загрузка...
 
Автор Сообщение

Galfimbul

avatar Galfimbul


Нодамэ Кантабиле
Оригинальное название: のだめカンタービレ
Английское название: Nodame Cantabile
Год выпуска: 2010
Страна: Япония
Жанр: комедия, романтика, повседневность, сёдзё
Продолжительность: 11 эп.; 25 мин.
Перевод : Любительский двухголосый Valkrist & Keneretta
Русские субтитры: нет

Количество серий: 11 из 11
Режиссёр: Кон Тиаки
Студия:
Описание: После множества трудов, хлопот и треволнений судьба забрасывает главных героев в столицу мировой классической музыки. Мэгуми Нода по сравнению с первым сезоном прошла немалый путь, выросла как человек и музыкант и, наконец, поняла, что изучение теории и техники вовсе не означает утраты природной самобытности. Ее любимый, Синъити Тиаки, теперь дирижирует известным оркестром Рю Марле и одержим движением вперед. Разумеется, по молодости обоих часто заносит, и если Нодамэ подводит несобранность, то Тиаки страшится, что его кто-то обгонит в профессиональном росте, пусть даже собственная девушка.
Однако жизнь на то и дается, чтобы преодолевать все преграды на пути к цели – незрелость, предвзятость, страх, взаимное непонимание. Теперь зрителей и поклонников сериала ждет финал симфонии в трех частях, и мало кто сомневается, что Нодамэ осуществит свою мечту и все же сыграет с Тиаки в одном оркестре. А остальное обеспечит Париж – город любви!
© Hollow, World Art
Качество: HDTVRip
Формат: MP4
Видео кодек: H.264
аудио кодек: ААС
Другие параметры видео: 480х272, 16:9, 29,970 кадр/сек, 512 Кбит/сек
Аудио Rus : 128 Кбит/сек, 44,1 КГц, 2 канала(ов)
01. Leçon 1
02. Leçon 2
03. Leçon 3
04. Leçon 4
05. Leçon 5
06. Leçon 6
07. Leçon 7
08. Leçon 8
09. Leçon 9
10. Leçon 10
11. Leçon 11
<!--/code_head--> <div class="c-body">Формат                           : MPEG-4
Профиль формата                  : Sony PSP
Идентификатор кодека             : MSNV
Размер файла                     : 106 Мбайт
Продолжительность                : 22 м.
Общий поток                      : 648 Кбит/сек

Видео
Идентификатор                    : 1
Формат                           : AVC
Формат/Информация                : Advanced Video Codec
Профиль формата                  : <a href="mailto:Main@L2.1" class="postLink">Main@L2.1</a>
Параметр CABAC формата           : Да
Параметр ReFrames формата        : 2 кадры
Идентификатор кодека             : avc1
Идентификатор кодека/Информация  : Advanced Video Coding
Продолжительность                : 22 м.
Вид битрейта                     : Переменный
Битрейт                          : 512 Кбит/сек
Ширина                           : 480 пикс.
Высота                           : 272 пикс.
Соотношение сторон               : 16:9
Режим частоты кадров             : Постоянный
Частота кадров                   : 29,970 кадр/сек
Цветовое пространство            : YUV
Подвыборка цветности             : 4:2:0
Битовая глубина                  : 8 бит
Тип развёртки                    : Прогрессивная
Бит/(Пиксели*Кадры)              : 0.131
Размер потока                    : 84,5 Мбайт (80%)
Библиотека кодирования           : x264 core 77
Настройки программы              : cabac=1 / ref=2 / deblock=0:0:0 / analyse=0x1:0 / me=dia / subme=8 / psy=1 / psy_rd=1.0:0.0 / mixed_ref=0 / me_range=16 / chroma_me=0 / trellis=0 / 8x8dct=0 / cqm=0 / deadzone=21,11 / chroma_qp_offset=-2 / threads=2 / nr=0 / decimate=1 / mbaff=0 / constrained_intra=0 / bframes=0 / keyint=250 / keyint_min=25 / scenecut=0 / rc_lookahead=40 / rc=abr / mbtree=1 / bitrate=512 / ratetol=1.0 / qcomp=0.60 / qpmin=10 / qpmax=51 / qpstep=4 / ip_ratio=1.41 / aq=1:1.00

Аудио
Идентификатор                    : 2
Формат                           : AAC
Формат/Информация                : Advanced Audio Codec
Профиль формата                  : LC
Идентификатор кодека             : 40
Продолжительность                : 22 м.
Вид битрейта                     : Переменный
Битрейт                          : 128 Кбит/сек
Канал(ы)                         : 2 канала(ов)
Расположение каналов             : Front: L R
Частота                          : 44,1 КГц
Метод сжатия                     : С потерями
Размер потока                    : 21,0 Мбайт (20%)
Язык                             : Russian <!--/code--><!--/code_wrap-->


Трекер:  [ 04-Июн-2012 22:34 ]

  

Скачать .torrent

Размер .torrent файла 25 KB


Размер: 1.15 GB
Хэш (hash) релиза: 96f7730fdc393d50c911b543d5e4fb950c740f4b
Подписка на обновления:

Торренты, похожие на Нодамэ Кантабиле Nodame Cantabile скачать торрент

Форум Название Автор Размер S L Добавлен
Видео для Консолей ·· [ANIME] Нодамэ Кантабиле / Nodame Cantabile (Касай Кэнъити)[1 сезон][23 из 23][2007 г., комедия, романтика, сёдзё, аниме, HDTVRip][Субтитры] Galfimbul 16647760221.55 GB 0 0 1339004340

20:39

6-Июн-12

Видео для Консолей ·· [ANIME4PSP]Нодамэ Кантабиле / Nodame Cantabile (Касай Кэнъити)[TV] [1 сезон] [23 из 23] [2007, комедия, романтика, повседневность, сёдзё, DTVRip] [Valkrist & Keneretta] Galfimbul 26235604452.44 GB 0 0 1338968460

10:41

6-Июн-12

Зарубежные сериалы ·· Нодамэ Кантабиле Фильм первый / Nodame Kantabire saishuu gakushou - Zenpen / Nodame Cantabile The Final Score - Part I [2009, Комедия, музыкальный, BDRip] [RAW] [720p] [VO] [aleksei80] Galfimbul 42751660933.98 GB 0 0 1418936998

00:09

19-Дек-14

Зарубежные сериалы ·· Нодамэ Кантабиле: Фильм Второй / Nodame Kantabire saishuu gakushou - Kouhen(Gopen) / Nodame Cantabile: The Final Score - Part II [2010, Комедия, музыкальный, BDRip] [RAW] [720p] VO (aleksei80) Galfimbul 58284420325.43 GB 0 0 1418936994

00:09

19-Дек-14

Зарубежные сериалы ·· Нодамэ Кантабиле Европейское турне / Nodame Cantabile Special Lesson [2/2] [2007, Романтическая комедия, музыкальный, DTVRip] [RAW] VO (aleksei80) Galfimbul 40961073143.81 GB 0 0 1418937008

00:10

19-Дек-14

Видео для Консолей ·· [ANIME] Нодамэ Кантабиле (второй сезон) [1-11 из 11] / Nodame Cantabile: Paris Chapter [2008 г., Комедия, романтика, сёдзё, DTVRip] Galfimbul 13997371721.3 GB 0 0 1339080060

17:41

7-Июн-12

Еще никто не оставлял запись к записи скачать торрент Нодамэ Кантабиле Nodame Cantabile . Будь первым!

!Обратная связь