Скачать через торрент [ANIME] Иной мир – легенда Святых Рыцарей Saint Knight Story in an Alternate World Фильм бесплатно в хорошем качестве torrent

Скачивайте на UnionPeer.org фильмы через торрент без регистрации. Новинки кино в хорошем качестве через торрент. На UnionPeer.org можно скачать через торрент фильмы 2014 и 2015 годов. Самые новые фильмы.

Скачать торрент [ANIME] Иной мир – легенда Святых Рыцарей Saint Knight Story in an Alternate World бесплатно через .torrent фильм мультфильм сериал

Если у вас наблюдаются проблемы со скриншотами, переходом по ссылками, скачиванием торрентов - проблемы в блокировщике рекламы AdBlock. #хорошегоДня!


Статистика раздачи
Размер:  2.19 GB   |    Зарегистрирован:  5 лет 2 месяца   |    .torrent скачан:  94 раза   |   
Раздают:  1  
   
Загрузка...
 
Автор Сообщение

Galfimbul

avatar Galfimbul




Иной мир – легенда Святых Рыцарей
Оригинальное название: 異世界の聖機師物語
Английское название: Saint Knight Story in an Alternate World
Период трансляции: c 20.03.2009 по 19.03.2010.
Страна: Япония
Жанр: приключения, фэнтези, меха, этти
Продолжительность: OAV (13 эп.), 45 мин.
Режиссёр: Ёсикава Кодзи
Озвучка: одноголосый Akikomi
Студия:

Описание: 15-летний Кэнси Масаки таинственным образом попадает в фэнтезийный мир Геминар, правители которого ведут бесконечную войну с помощью Сэйкиси - огромных гуманоидных роботов, самого мощного оружия, оставшегося в их распоряжении. Геминар давно впал в увядание и декаданс, даже Сэйкиси, чье прозвание можно перевести как «священные доспехи» или «святые рыцари» - наследие давно ушедших времен. Однако бойцы, что могут ими управлять, немногочисленны, из них каждый на счету. Поэтому Кэнси, призванного против воли, жестокий министр Бабарун сразу приставил к делу, «промыв мозги» и послав убивать Лашару - юную принцессу собственной страны.

Только Кэнси ведь из рода Масаки - благородных воинов, не раз спасавших саму Вселенную (особенно в приятной компании красивых и сильных духом девушек)! Стряхнув колдовские путы, он объединяет силы с умной, но язвительной принцессой, ее верной телохранительницей Кяйей, генералом Мезайей, эльфийкой Аурой, механиком Ваханли и, для разнообразия, единственным мужчиной в команде - советником Юрайто. Уж теперь силы зла точно пожалеют, что познакомились с простым японским парнем!

© Hollow, World Art
Качество: HDRip
Формат: MP4
Видео кодек: H.264
Аудио кодек: AAC
Видео: MPEG4 Video (H264) 480x272 23.98fps [400 Kbps]
Аудио: AAC 48000Hz stereo [129 Kbps]

01. White and Black Holy Machine
02. To The Holy Land
03. Person Who Doesn't Work......
04. Pendant
05. Chase and Be Chased
06. Vacation
07. Warrior Tournament
08. Invasion
09. Expectation
10. Home
11. Barrier Workshop
12. Success
13. Gaia

Format : MPEG-4
Format profile : Base Media
Codec ID : isom
File size : 306 MiB
Duration : 51mn 3s
Overall bit rate : 839 Kbps
Encoded date : UTC 2010-09-25 23:34:28
Tagged date : UTC 2010-09-25 23:34:28

Video
ID : 1
Format : AVC
Format/Info : Advanced Video Codec
Format profile : <a href="mailto:Main@L3.0" class="postLink">Main@L3.0</a>
Format settings, CABAC : Yes
Format settings, ReFrames : 3 frames
Codec ID : avc1
Codec ID/Info : Advanced Video Coding
Duration : 51mn 2s
Bit rate mode : Variable
Bit rate : 706 Kbps
Nominal bit rate : 400 Kbps
Maximum bit rate : 8 108 Kbps
Width : 480 pixels
Height : 272 pixels
Display aspect ratio : 16:9
Frame rate mode : Constant
Frame rate : 23.976 fps
Color space : YUV
Chroma subsampling : 4:2:0
Bit depth : 8 bits
Scan type : Progressive
Bits/(Pixel*Frame) : 0.226
Stream size : 258 MiB (84%)
Writing library : x264 core 56 svn-667M
Encoding settings : cabac=1 / ref=2 / deblock=1:0:0 / analyse=0x1:0x131 / me=umh / subme=6 / brdo=1 / mixed_ref=1 / me_range=16 / chroma_me=1 / trellis=1 / 8x8dct=0 / cqm=0 / deadzone=21,11 / chroma_qp_offset=0 / threads=2 / nr=0 / decimate=1 / mbaff=0 / bframes=3 / b_pyramid=0 / b_adapt=1 / b_bias=0 / direct=3 / wpredb=1 / bime=1 / keyint=250 / keyint_min=25 / scenecut=40(pre) / rc=2pass / bitrate=400 / ratetol=1.0 / rceq='blurCplx^(1-qComp)' / qcomp=0.60 / qpmin=10 / qpmax=51 / qpstep=4 / cplxblur=20.0 / qblur=0.5 / ip_ratio=1.40 / pb_ratio=1.30
Encoded date : UTC 2010-09-25 23:34:28
Tagged date : UTC 2010-09-25 23:34:56

Audio
ID : 2
Format : AAC
Format/Info : Advanced Audio Codec
Format version : Version 4
Format profile : LC
Format settings, SBR : No
Codec ID : 40
Duration : 51mn 3s
Bit rate mode : Variable
Bit rate : 129 Kbps
Maximum bit rate : 180 Kbps
Channel(s) : 2 channels
Channel positions : Front: L R
Sampling rate : 48.0 KHz
Stream size : 47.1 MiB (15%)
Encoded date : UTC 2010-09-25 23:34:54
Tagged date : UTC 2010-09-25 23:34:56



Трекер:  [ 04-Июн-2012 08:59 ]

  

Скачать .torrent

Размер .torrent файла 6 KB


Размер: 2.19 GB
Хэш (hash) релиза: 7437f6184c6a266c09c1b5a204335eeacad9c62a
Подписка на обновления:

Еще никто не оставлял запись к записи скачать торрент [ANIME] Иной мир – легенда Святых Рыцарей Saint Knight Story in an Alternate World . Будь первым!

!Обратная связь