Скачать через торрент [ANIME] Стальная тревога: Фумоффу Full Metal Panic? Fumoffu Фильм бесплатно в хорошем качестве torrent

Скачивайте на UnionPeer.org фильмы через торрент без регистрации. Новинки кино в хорошем качестве через торрент. На UnionPeer.org можно скачать через торрент фильмы 2014 и 2015 годов. Самые новые фильмы.

Скачать торрент [ANIME] Стальная тревога: Фумоффу Full Metal Panic? Fumoffu бесплатно через .torrent фильм мультфильм сериал

Если у вас наблюдаются проблемы со скриншотами, переходом по ссылками, скачиванием торрентов - проблемы в блокировщике рекламы AdBlock. #хорошегоДня!


Статистика раздачи
Размер:  1.28 GB   |    Зарегистрирован:  5 лет 2 месяца   |    .torrent скачан:  86 раз   |   
Раздают:  1  
   
Загрузка...
 
Автор Сообщение

Galfimbul

avatar Galfimbul



Стальная тревога: Фумоффу / Full Metal Panic? Fumoffu
Оригинальное Название: フルメタル・パニック?ふもっふ
Английское Название: Full Metal Panic? Fumoffu
Год выпуска: 2003
Период трансляции: c 26.08.2003 по 18.11.2003
Страна: Япония
Жанр: приключения, комедия, романтика, меха
Режиссер: Такэмото Ясухиро
Продолжительность: ТВ (12 эп.), 25 мин
Перевод: Профессиональный (многоголосый закадровый) [MC Entertainment]
Русские субтитры: нет
Описание:
Взрывные устройства и убийственный юмор соединяются, когда угрюмый солдафон и объект его опеки проходят сквозь огонь, воду, озабоченных «террористов» и учителей, помешанных на мести! Продолжение знаменитого сериала «Стальная тревога» снятое на студии, подарившей миру аниме-версию «Меланхолии Харуки Судзумии». Творческий коллектив помещает персонажей художника Седзи Гато в череду комедийных ситуаций - и если первый сериал был боевиком с романтическими элементами, то здесь перед нами - без пяти минут ситком!
© World Art
Качество: HDRip
Формат: MP4
Видео кодек: H.264
Аудио кодек: AAC
Видео: H.264, 368x272, 4:3, 512 Kbps, 23.976 fps
Аудио: AAC, 128 Kbps, 44 KHz, 2 channels
01. The Man from the South / A Hostage with No Compromises
02. Hostility Passing-By / A Fruitless Lunchtime
03. Summer Illusion of Steel
04. The Hamburger Hill of Art / Single-Minded Stakeout!
05. The Pure Yet Impure Grappler / Trespassing on Good Faith
06. The Hard Sell Fetish / The Patient of Darkness
07. The War Cry of Excessiveness
08. A Goddess Comes to Japan (Part 1: The Suffering)
09. A Goddess Comes to Japan (Part 2: The Hot Spring)
10. A Fancy Without Honor or Humanity
11. Uncontrollable Bluebird
12. 5th Period Hot Spot
General
Complete name : 01.mp4
Format : MPEG-4
Format profile : Base Media
Codec ID : isom
File size : 109 MiB
Duration : 23mn 37s
Overall bit rate : 644 Kbps
Movie name : Ep01 CRF13
Writing application : XviD4PSP 6.0 / 53.12.0

Video
ID : 1
Format : AVC
Format/Info : Advanced Video Codec
Format profile : <a href="mailto:Main@L3.0" class="postLink">Main@L3.0</a>
Format settings, CABAC : Yes
Format settings, ReFrames : 2 frames
Codec ID : avc1
Codec ID/Info : Advanced Video Coding
Duration : 23mn 37s
Bit rate : 512 Kbps
Width : 368 pixels
Height : 272 pixels
Display aspect ratio : 4:3
Original display aspect ratio : 4:3
Frame rate mode : Constant
Frame rate : 23.976 fps
Color space : YUV
Chroma subsampling : 4:2:0
Bit depth : 8 bits
Scan type : Progressive
Bits/(Pixel*Frame) : 0.213
Stream size : 86.2 MiB (79%)
Writing library : x264 core 116 r2074M 2641b9e
Encoding settings : cabac=1 / ref=2 / deblock=1:1:1 / analyse=0x1:0x131 / me=hex / subme=7 / psy=1 / psy_rd=0.40:0.20 / mixed_ref=1 / me_range=16 / chroma_me=1 / trellis=1 / 8x8dct=0 / cqm=0 / deadzone=21,11 / fast_pskip=1 / chroma_qp_offset=-3 / threads=6 / sliced_threads=0 / nr=0 / decimate=1 / interlaced=0 / bluray_compat=0 / constrained_intra=0 / bframes=3 / b_pyramid=0 / b_adapt=2 / b_bias=0 / direct=3 / weightb=1 / open_gop=0 / weightp=2 / keyint=230 / keyint_min=23 / scenecut=40 / intra_refresh=0 / rc_lookahead=40 / rc=2pass / mbtree=1 / bitrate=512 / ratetol=1.0 / qcomp=0.60 / qpmin=10 / qpmax=51 / qpstep=4 / cplxblur=20.0 / qblur=0.5 / vbv_maxrate=2500 / vbv_bufsize=2000 / nal_hrd=none / ip_ratio=1.40 / aq=1:0.60
Language : English

Audio
ID : 2
Format : AAC
Format/Info : Advanced Audio Codec
Format profile : LC
Codec ID : 40
Duration : 23mn 37s
Bit rate mode : Constant
Bit rate : 128 Kbps
Channel(s) : 2 channels
Channel positions : Front: L R
Sampling rate : 48.0 KHz
Compression mode : Lossy
Stream size : 21.6 MiB (20%)


Трекер:  [ 04-Июн-2012 09:04 ]

  

Скачать .torrent

Размер .torrent файла 14 KB


Размер: 1.28 GB
Хэш (hash) релиза: 8a4882af7302daf64a7502e8a917d88a89b71c70
Подписка на обновления:

Еще никто не оставлял запись к записи скачать торрент [ANIME] Стальная тревога: Фумоффу Full Metal Panic? Fumoffu . Будь первым!

!Обратная связь