Скачать через торрент [ANIME] Кэйон! K-On! Фильм бесплатно в хорошем качестве torrent

Скачивайте на UnionPeer.org фильмы через торрент без регистрации. Новинки кино в хорошем качестве через торрент. На UnionPeer.org можно скачать через торрент фильмы 2014 и 2015 годов. Самые новые фильмы.

Скачать торрент [ANIME] Кэйон! K-On! бесплатно через .torrent фильм мультфильм сериал

Если у вас наблюдаются проблемы со скриншотами, переходом по ссылками, скачиванием торрентов - проблемы в блокировщике рекламы AdBlock. #хорошегоДня!


Статистика раздачи
Размер:  1.31 GB   |    Зарегистрирован:  5 лет 5 месяцев   |    .torrent скачан:  68 раз   |   
Раздают:  1  
   
Загрузка...
 
Автор Сообщение

Galfimbul

avatar Galfimbul




Кэйон!


Оригинальное название: けいおん!
Английское название: K-On!
Год выпуска: 2009г.
Страна: Япония
Жанр: комедия, музыкальный, школа
Продолжительность: ТВ (12 эп. + 9 спэшлов), 25 мин.
Режиссёр: Ямада Наоко
Озвучка: одноголосый Ancord
Студия:

Описание:
Милая, искренняя и неуклюжая Юй Хирасава счастлива, что поступила в старшую школу. Теперь настало время проявить себя, найти друзей, повзрослеть и избавиться от детских комплексов, найдя клуб по душе и раскрыв неведомые таланты! Хм, а какие у Юй таланты? Ей самой пока неясно…

Тем временем гиперактивная Рицу Тайнака с подругой детства Мио Акиямой изо всех сил пытаются сохранить школьный клуб легкой музыки, лишившийся всех своих членов. Задача проста – набрать четверых до конца апреля, первого месяца учебы. Бесценной находкой стала «заглянувшая на огонек» Цумуги Котобуки – богатая наследница и настоящая «принцесса». Теперь давняя мечта Рицу создать свою группу почти сбылась: ведь сама она владеет ударными, Мио – басист, а пианистка-виртуоз Цумуги может встать за клавишные. Но время близится, а последней, четвертой девушки, все нет! Кто же возьмет гитару и станет душой компании? Конечно же, малышка Юй! Не беда, что гитару она в руках не держала – было бы желание… Вот так возродился клуб легкой музыки (по-японски кэйон-гаку), за становлением и развитием которого мы будем неустанно следить этой весной!

© Hollow, World Art
Качество: HDRip
Формат: MP4
Видео кодек: H.264
Аудио кодек: AAC
Видео: MPEG4 Video (H264) 480x272 23.98fps [400 Kbps]
Аудио: AAC 48000Hz stereo [129 Kbps]
01. Abolished Club!
02. Instrument!
03. Special Training!
04. Training Camp!
05. Advisor!
06. School Festival!
07. Christmas!
08. New Member!
09. Newly-entered Member!
10. Rooming Together Again!
11. Pinch!
12. Light Music!
Спэшлы:
01 (13). Winter Days!
02 (14). Extra Episode: Live House!
03. Yui's Curiosity Series
04. Ricchan's Kodac Moment Series
05. Mio's Panties
06. Little Yui-chan
07. K-ON's Uninhabited Island Series
08. Animal Series
09. Winter sketches

Format : MPEG-4
Format profile : Base Media
Codec ID : isom
File size : 92.1 MiB
Duration : 24mn 11s
Overall bit rate : 532 Kbps
Encoded date : UTC 2010-09-20 09:53:27
Tagged date : UTC 2010-09-20 09:53:27

Video
ID : 1
Format : AVC
Format/Info : Advanced Video Codec
Format profile : <a href="mailto:Main@L3.0" class="postLink">Main@L3.0</a>
Format settings, CABAC : Yes
Format settings, ReFrames : 3 frames
Format settings, GOP : M=4, N=13
Codec ID : avc1
Codec ID/Info : Advanced Video Coding
Duration : 24mn 11s
Bit rate mode : Variable
Bit rate : 400 Kbps
Maximum bit rate : 2 735 Kbps
Width : 480 pixels
Height : 272 pixels
Display aspect ratio : 16:9
Frame rate mode : Constant
Frame rate : 23.976 fps
Color space : YUV
Chroma subsampling : 4:2:0
Bit depth : 8 bits
Scan type : Progressive
Bits/(Pixel*Frame) : 0.128
Stream size : 69.2 MiB (75%)
Writing library : x264 core 56 svn-667M
Encoding settings : cabac=1 / ref=2 / deblock=1:0:0 / analyse=0x1:0x131 / me=umh / subme=6 / brdo=1 / mixed_ref=1 / me_range=16 / chroma_me=1 / trellis=1 / 8x8dct=0 / cqm=0 / deadzone=21,11 / chroma_qp_offset=0 / threads=2 / nr=0 / decimate=1 / mbaff=0 / bframes=3 / b_pyramid=0 / b_adapt=1 / b_bias=0 / direct=3 / wpredb=1 / bime=1 / keyint=250 / keyint_min=25 / scenecut=40(pre) / rc=2pass / bitrate=400 / ratetol=1.0 / rceq='blurCplx^(1-qComp)' / qcomp=0.60 / qpmin=10 / qpmax=51 / qpstep=4 / cplxblur=20.0 / qblur=0.5 / ip_ratio=1.40 / pb_ratio=1.30
Encoded date : UTC 2010-09-20 09:53:27
Tagged date : UTC 2010-09-20 09:53:30

Audio
ID : 2
Format : AAC
Format/Info : Advanced Audio Codec
Format version : Version 4
Format profile : LC
Format settings, SBR : No
Codec ID : 40
Duration : 24mn 11s
Bit rate mode : Variable
Bit rate : 129 Kbps
Maximum bit rate : 172 Kbps
Channel(s) : 2 channels
Channel positions : Front: L R
Sampling rate : 48.0 KHz
Stream size : 22.3 MiB (24%)
Encoded date : UTC 2010-09-20 09:53:29
Tagged date : UTC 2010-09-20 09:53:30



Трекер:  [ 04-Июн-2012 08:22 ]

  

Скачать .torrent

Размер .torrent файла 5 KB


Размер: 1.31 GB
Хэш (hash) релиза: a516834c104e5a81c31dc03a2df4c2cffe6ed846
Подписка на обновления:

Еще никто не оставлял запись к записи скачать торрент [ANIME] Кэйон! K-On! . Будь первым!

!Обратная связь