Скачать через торрент Пираты «Черной лагуны» Black Lagoon Фильм бесплатно в хорошем качестве torrent

Скачивайте на UnionPeer.org фильмы через торрент без регистрации. Новинки кино в хорошем качестве через торрент. На UnionPeer.org можно скачать через торрент фильмы 2014 и 2015 годов. Самые новые фильмы.

Скачать торрент Пираты «Черной лагуны» Black Lagoon бесплатно через .torrent фильм мультфильм сериал

Если у вас наблюдаются проблемы со скриншотами, переходом по ссылками, скачиванием торрентов - проблемы в блокировщике рекламы AdBlock. #хорошегоДня!


Статистика раздачи
Размер:  2.54 GB   |    Зарегистрирован:  5 лет 2 месяца   |    .torrent скачан:  60 раз   |   
Раздают:  1  
   
Загрузка...
 
Автор Сообщение

Galfimbul

avatar Galfimbul


Пираты "Черной лагуны"
Оригинальное название: ラックラグーン
Английское название: Black Lagoon
Год выпуска: 2006
Страна: Япония
Жанр:приключения, комедия, драма
Продолжительность: ТВ [24], 25 мин.
Перевод : Любительский одноголосый Suzaku&SPAWN2 Suzaku - 1-12 серии, SPAWN2 - 13-24 серии
Русские субтитры: нет
Режиссёр: Катабути Сунао
Студия:
Описание: Простой японский служащий Рокуро Окадзима отправляется в командировку в юго-восточную Азию: ему нужно доставить очень важный диск. Вся его жизнь переворачивается в тот момент, когда на корабль нападают пираты и берут Рокуро в заложники. Спасая лицо, компания решает избавиться от диска вместе со служащим. Чтобы выжить, Рок объединяется с пиратами – и теперь он сотрудник «Чёрной лагуны»! Вместе они сражаются с наемными убийцами, вертолетами и кораблями, а потом отправляются искать загадочную подводную лодку нацистской Германии.
(с)WA
Качество: HDRip
Формат: MP4
Видео кодек: H.264
аудио кодек: ААС
Другие параметры видео: 480х272, 16:9, 29,970 кадр/сек, 512 Кбит/сек
Аудио Rus : 128 Кбит/сек, 44,1 КГц, 2 канала(ов)
Black Lagoon:

* 01. The Black Lagoon
* 02. Mangrove Heaven
* 03. Ring-Ding Ship Chase
* 04. Die Rückkehr des Adlers
* 05. Eagle Hunting and Hunting Eagles
* 06. Moonlit Hunting Grounds
* 07. Calm Down,Two Men
* 08. Rasta Blasta
* 09. Maid to Kill
* 10. The Unstoppable Chambermaid
* 11. Lock'n Load Revolution
* 12. Guerrillas in the Jungle

Black Lagoon: The Second Barrage:

* 01 (13). The Vampire Twins Comen
* 02 (14). Bloodsport Fairytale
* 03 (15). Swan Song at Dawn
* 04 (16). Green back Jane
* 05 (17). The Roanapur Freakshow Circus
* 06 (18). Mr Benny's Good Fortune
* 07 (19). Fujiyama Gangst a Paradise
* 08 (20). The Succession
* 09 (21). Two Father's Little Soldier Girls
* 10 (22). The Dark Tower
* 11 (23). Snow White's Payback
* 12 (24). The Gunslingers
<!--/code_head--> <div class="c-body">Формат                           : MPEG-4
Профиль формата                  : Sony PSP
Идентификатор кодека             : MSNV
Размер файла                     : 108 Мбайт
Продолжительность                : 23 м.
Общий поток                      : 643 Кбит/сек

Видео
Идентификатор                    : 1
Формат                           : AVC
Формат/Информация                : Advanced Video Codec
Профиль формата                  : <a href="mailto:Main@L2.1" class="postLink">Main@L2.1</a>
Параметр CABAC формата           : Да
Параметр ReFrames формата        : 2 кадры
Идентификатор кодека             : avc1
Идентификатор кодека/Информация  : Advanced Video Coding
Продолжительность                : 23 м.
Вид битрейта                     : Переменный
Битрейт                          : 512 Кбит/сек
Ширина                           : 480 пикс.
Высота                           : 272 пикс.
Соотношение сторон               : 16:9
Режим частоты кадров             : Постоянный
Частота кадров                   : 29,970 кадр/сек
Цветовое пространство            : YUV
Подвыборка цветности             : 4:2:0
Битовая глубина                  : 8 бит
Тип развёртки                    : Прогрессивная
Бит/(Пиксели*Кадры)              : 0.131
Размер потока                    : 85,7 Мбайт (79%)
Библиотека кодирования           : x264 core 77
Настройки программы              : cabac=1 / ref=2 / deblock=0:0:0 / analyse=0x1:0 / me=dia / subme=8 / psy=1 / psy_rd=1.0:0.0 / mixed_ref=0 / me_range=16 / chroma_me=0 / trellis=0 / 8x8dct=0 / cqm=0 / deadzone=21,11 / chroma_qp_offset=-2 / threads=2 / nr=0 / decimate=1 / mbaff=0 / constrained_intra=0 / bframes=0 / keyint=250 / keyint_min=25 / scenecut=0 / rc_lookahead=40 / rc=abr / mbtree=1 / bitrate=512 / ratetol=1.0 / qcomp=0.60 / qpmin=10 / qpmax=51 / qpstep=4 / ip_ratio=1.41 / aq=1:1.00

Аудио
Идентификатор                    : 2
Формат                           : AAC
Формат/Информация                : Advanced Audio Codec
Профиль формата                  : LC
Идентификатор кодека             : 40
Продолжительность                : 23 м.
Вид битрейта                     : Переменный
Битрейт                          : 128 Кбит/сек
Канал(ы)                         : 2 канала(ов)
Расположение каналов             : Front: L R
Частота                          : 44,1 КГц
Метод сжатия                     : С потерями
Размер потока                    : 21,5 Мбайт (20%) <!--/code--><!--/code_wrap-->


Трекер:  [ 04-Июн-2012 08:06 ]

  

Скачать .torrent

Размер .torrent файла 30 KB


Размер: 2.54 GB
Хэш (hash) релиза: abed73afd21bf8a518483282f38a474eb8c7068e
Подписка на обновления:

Торренты, похожие на Пираты «Черной лагуны» Black Lagoon скачать торрент

Форум Название Автор Размер S L Добавлен
Видео для Консолей ·· Пираты «Черной лагуны»: Кровавый след Роберты / Black Lagoon: Roberta's Blood Trail [Катабути Сунао][OVA][5 из 5][2010г., приключения., HDRip][Субтитры] Galfimbul 732616361699 MB 0 0 1338789900

09:05

4-Июн-12

Еще никто не оставлял запись к записи скачать торрент Пираты «Черной лагуны» Black Lagoon . Будь первым!

!Обратная связь