Скачать через торрент [ANIME] Стальная тревога! Новый рейд Full Metal Panic! The Second Raid Фильм бесплатно в хорошем качестве torrent

Скачивайте на UnionPeer.org фильмы через торрент без регистрации. Новинки кино в хорошем качестве через торрент. На UnionPeer.org можно скачать через торрент фильмы 2014 и 2015 годов. Самые новые фильмы.

Скачать торрент [ANIME] Стальная тревога! Новый рейд Full Metal Panic! The Second Raid бесплатно через .torrent фильм мультфильм сериал

Если у вас наблюдаются проблемы со скриншотами, переходом по ссылками, скачиванием торрентов - проблемы в блокировщике рекламы AdBlock. #хорошегоДня!


Статистика раздачи
Размер:  1.41 GB   |    Зарегистрирован:  5 лет 2 месяца   |    .torrent скачан:  76 раз   |   
Раздают:  1  
   
Загрузка...
 
Автор Сообщение

Galfimbul

avatar Galfimbul



Стальная тревога! Новый рейд / Full Metal Panic! The Second Raid
Оригинальное Название: フルメタル・パニック! The Second Raid
Английское Название: Full Metal Panic! The Second Raid
Год выпуска: 2005
Период трансляции: c 14.07.2005 по 20.10.2005
Страна: Япония
Жанр: приключения, комедия, фантастика, меха
Режиссер: Такэмото Ясухиро
Продолжительность: ТВ (13 эп.), 25 мин
Перевод: Профессиональный (многоголосый закадровый) [MC Entertainment]
Русские субтитры: нет
Описание:
Третий сезон продолжает основную сюжетную линию фильма. «Мифрил» делает своё обычное дело, противодействует террору и экстремизму, помогает гасить локальные конфликты. Похоже, Тидори Канаме уже ничего не угрожает, и командование чем дальше, тем больше задаётся вопросом: какой смысл держать возле девушки Сагару, который нужен для боевой работы и испытаний «Арбалеста»? Главные герои тем временем заканчивают школу. Сагара впервые задумывается: что же он будет делать дальше? Каким он хочет видеть своё будущее?
Качество: HDRip
Формат: MP4
Видео кодек: H.264
Аудио кодек: AAC
Видео: H.264, 480x272, 16:9, 512 Kbps, 23.976 fps
Аудио: AAC, 128 Kbps, 44 KHz, 2 channels
01. The End of Day by Day
02. The Scene Below the Water
03. Labyrinth and Dragon
04. Daylight
05. Beautiful Sicily
06. Edge of Heaven
07. Left Behind
08. Jungle Groove
09. Her Problem
10. Hong Kong in Two
11. His Problem
12. The Burning of Hong Kong
13. The Continuing Day by Day
General
Complete name : 01.mp4
Format : MPEG-4
Format profile : Base Media
Codec ID : isom
File size : 109 MiB
Duration : 23mn 38s
Overall bit rate : 645 Kbps
Writing application : XviD4PSP 6.0 / 53.12.0

Video
ID : 1
Format : AVC
Format/Info : Advanced Video Codec
Format profile : <a href="mailto:Main@L3.0" class="postLink">Main@L3.0</a>
Format settings, CABAC : Yes
Format settings, ReFrames : 2 frames
Codec ID : avc1
Codec ID/Info : Advanced Video Coding
Duration : 23mn 37s
Bit rate : 512 Kbps
Width : 480 pixels
Height : 272 pixels
Display aspect ratio : 16:9
Original display aspect ratio : 16:9
Frame rate mode : Constant
Frame rate : 23.976 fps
Color space : YUV
Chroma subsampling : 4:2:0
Bit depth : 8 bits
Scan type : Progressive
Bits/(Pixel*Frame) : 0.164
Stream size : 86.5 MiB (79%)
Writing library : x264 core 116 r2074M 2641b9e
Encoding settings : cabac=1 / ref=2 / deblock=1:1:1 / analyse=0x1:0x131 / me=hex / subme=7 / psy=1 / psy_rd=0.40:0.20 / mixed_ref=1 / me_range=16 / chroma_me=1 / trellis=1 / 8x8dct=0 / cqm=0 / deadzone=21,11 / fast_pskip=1 / chroma_qp_offset=-3 / threads=6 / sliced_threads=0 / nr=0 / decimate=1 / interlaced=0 / bluray_compat=0 / constrained_intra=0 / bframes=3 / b_pyramid=0 / b_adapt=2 / b_bias=0 / direct=3 / weightb=1 / open_gop=0 / weightp=2 / keyint=230 / keyint_min=23 / scenecut=40 / intra_refresh=0 / rc_lookahead=40 / rc=2pass / mbtree=1 / bitrate=512 / ratetol=1.0 / qcomp=0.60 / qpmin=10 / qpmax=51 / qpstep=4 / cplxblur=20.0 / qblur=0.5 / vbv_maxrate=2500 / vbv_bufsize=2000 / nal_hrd=none / ip_ratio=1.40 / aq=1:0.60
Language : Japanese

Audio
ID : 2
Format : AAC
Format/Info : Advanced Audio Codec
Format profile : LC
Codec ID : 40
Duration : 23mn 38s
Bit rate mode : Constant
Bit rate : 128 Kbps
Channel(s) : 2 channels
Channel positions : Front: L R
Sampling rate : 48.0 KHz
Compression mode : Lossy
Stream size : 21.6 MiB (20%)
Language : Russian


Трекер:  [ 04-Июн-2012 08:08 ]

  

Скачать .torrent

Размер .torrent файла 15 KB


Размер: 1.41 GB
Хэш (hash) релиза: 306b6c51d0796283d0084e991518ed754bb0ce0a
Подписка на обновления:

Еще никто не оставлял запись к записи скачать торрент [ANIME] Стальная тревога! Новый рейд Full Metal Panic! The Second Raid . Будь первым!

!Обратная связь