Скачать через торрент Гуррен-Лаганн Tengen Toppa Gurren-Lagann Фильм бесплатно в хорошем качестве torrent

Скачивайте на UnionPeer.org фильмы через торрент без регистрации. Новинки кино в хорошем качестве через торрент. На UnionPeer.org можно скачать через торрент фильмы 2014 и 2015 годов. Самые новые фильмы.

Скачать торрент Гуррен-Лаганн Tengen Toppa Gurren-Lagann бесплатно через .torrent фильм мультфильм сериал

Если у вас наблюдаются проблемы со скриншотами, переходом по ссылками, скачиванием торрентов - проблемы в блокировщике рекламы AdBlock. #хорошегоДня!


Статистика раздачи
Размер:  2.99 GB   |    Зарегистрирован:  5 лет 4 месяца   |    .torrent скачан:  43 раза   |   
Раздают:  1  
   
Загрузка...
 
Автор Сообщение

Galfimbul

avatar Galfimbul


Гуррен-Лаганн
Оригинальное название: 天元突破グレンラガン
Английское название: Tengen Toppa Gurren-Lagann
Год выпуска: 2007
Страна: Япония
Жанр: приключения, меха, фантастика
Продолжительность: 27серий ~25:00
Перевод: Субтитры
Режиссёр: Хироюки Имаиси
Студия:
Описание: Сотни лет люди живут в глубоких пещерах, в постоянном страхе перед землетрясениями и обвалами. В одной из таких подземных деревень живет мальчик Симон и его «духовный наставник» — молодой парень Камина. Камина верит, что наверху есть другой мир, без стен и потолков; его мечта — попасть туда. Но его мечты остаются пустыми фантазиями, пока в один прекрасный день Симон случайно не находит дрель... вернее, ключ от странного железного лица в толще земли. В этот же день происходит землетрясение, и потолок пещеры рушится — так начинается поистине эпическое приключение Симона, Камины и их компаньонов в новом для них мире: мире под открытым небом огромной Вселенной.
Качество: DVDRip
Формат: MP4
Видео кодек: H.264
Аудио кодек: AAC
Видео:512 Кбит/сек, 480*272 (16:9), at 29,970 кадр/сек, AVC
Аудио: 128 Кбит/сек, 48,0 КГц, 2 канала(ов), AAC
Формат : MPEG-4
Профиль формата : Sony PSP
Идентификатор кодека : MSNV
Размер файла : 105 Мбайт
Продолжительность : 21 м.
Общий поток : 668 Кбит/сек
Дата кодирования : UTC 2011-01-03 01:32:40
Дата пометки : UTC 2011-01-03 01:32:40

Видео
Идентификатор : 1
Формат : AVC
Формат/Информация : Advanced Video Codec
Профиль формата : <a href="mailto:Main@L2.1" class="postLink">Main@L2.1</a>
Параметр CABAC формата : Да
Параметр ReFrames формата : 3 кадры
Идентификатор кодека : avc1
Идентификатор кодека/Информация : Advanced Video Coding
Продолжительность : 21 м.
Вид битрейта : Переменный
Битрейт : 512 Кбит/сек
Ширина : 480 пикс.
Высота : 272 пикс.
Соотношение сторон : 16:9
Режим частоты кадров : Постоянный
Частота кадров : 29,970 кадр/сек
Цветовое пространство : YUV
Подвыборка цветности : 4:2:0
Битовая глубина : 8 бит
Тип развёртки : Прогрессивная
Бит/(Пиксели*Кадры) : 0.131
Размер потока : 83,8 Мбайт (80%)
Библиотека кодирования : x264 core 83

Аудио
Идентификатор : 2
Формат : AAC
Формат/Информация : Advanced Audio Codec
Профиль формата : LC
Идентификатор кодека : 40
Продолжительность : 21 м.
Вид битрейта : Переменный
Битрейт : 128 Кбит/сек
Канал(ы) : 2 канала(ов)
Расположение каналов : Front: L R
Частота : 48,0 КГц
Метод сжатия : С потерями
Размер потока : 20,0 Мбайт (19%)
Дата кодирования : UTC 2011-01-03 01:32:40
Дата пометки : UTC 2011-01-03 01:32:40
1. Своим буром — пронзи Небеса!
2. Я же сказал: я буду управлять этой штукой!
3. У тебя два лица?! Кем ты себя возомнил?!
4. Если много лиц, то ты крутой?
5. Мне совершенно ничего не понятно!
6. Эй, вы все! Заканчивайте рассиживаться в горячей воде, чёрт побери!
7. Это сделаешь ты!
8. Прощайте, братцы
9. Что значит — «человек»?
10. Каким человеком был твой брат?
11. Симон, убери руки
12. Ёко, у меня есть просьба
13. Ребята, угощайтесь!
14. Добрый день, господа!
15. Я пойду навстречу новому дню
16. Обобщающий эпизод
17. Ты ничего не понимаешь!
18. Поведай мне тайны этого мира
19. Мы выживем, во что бы то ни стало!
20. Доколь ещё Господь будет испытывать нас?
21. Ты — человек, который обязательно должен выжить!
22. Это мой последний долг
23. Идём, к последней битве!
24. Мы никогда не забудем эти минуты, эти секунды...
25. Я принял твою волю!
26. Идёмте, братцы!
27. Все эти огни в небесах — звёзды…


Трекер:  [ 04-Июн-2012 08:24 ]

  

Скачать .torrent

Размер .torrent файла 17 KB


Размер: 2.99 GB
Хэш (hash) релиза: 586b72ed708bff69b80f12a7f6fdb3faf1aae3e1
Подписка на обновления:

Еще никто не оставлял запись к записи скачать торрент Гуррен-Лаганн Tengen Toppa Gurren-Lagann . Будь первым!

!Обратная связь