Скачать через торрент [ANIME] Кэйон!! K-On!! Фильм бесплатно в хорошем качестве torrent

Скачивайте на UnionPeer.org фильмы через торрент без регистрации. Новинки кино в хорошем качестве через торрент. На UnionPeer.org можно скачать через торрент фильмы 2014 и 2015 годов. Самые новые фильмы.

Скачать торрент [ANIME] Кэйон!! K-On!! бесплатно через .torrent фильм мультфильм сериал

Если у вас наблюдаются проблемы со скриншотами, переходом по ссылками, скачиванием торрентов - проблемы в блокировщике рекламы AdBlock. #хорошегоДня!


Статистика раздачи
Размер:  2.19 GB   |    Зарегистрирован:  5 лет 2 месяца   |    .torrent скачан:  118 раз   |   
Раздают:  1  
   
Загрузка...
 
Автор Сообщение

Galfimbul

avatar Galfimbul




Кэйон!!


Оригинальное название: けいおん!!
Английское название: K-On!!
Год выпуска: 2010г.
Страна: Япония
Жанр: комедия, музыкальный, школа
Продолжительность: ТВ (24 эп. + 2 спэшла), 25 мин.
Режиссёр: Ямада Наоко
Озвучка: одноголосый Ancord
Студия:

Описание: Актив девичьей группы «Вечерний чай» в полном составе перешел в последний класс старшей школы. Усилиями своего куратора Яманаки-сэнсэя (для своих – Сава-тян) наши старые знакомые Юй, Рицу, Мио и Цумуги оказались в одном классе и теперь могут сосредоточиться на клубной активности. Но взросление предполагает ответственность, и девушкам пора думать не только о вечернем чае со сладостями, но и об укреплении клубных традиций и привлечении новых членов – иначе с кем вскоре останется малышка Адзуса?

Другое дело, что и репетиции, и набор новичков, и вся творческая деятельность Юй и компании все равно будут протекать в неповторимом стиле всемирно известного клуба легкой музыки. Этой весной мы снова увидим девичьи будни и праздники, клубные посиделки и новые концерты, косплей от Савы-тян и выезды на природу. Никто не сомневается, что клуб пополнится и новыми талантами. Остается лишь один вопрос: когда героини собираются выступить в Будокане – в этом сезоне или в следующем?

© Hollow, World Art
Качество:HDTVRip
Формат: MP4
Видео кодек: H.264
Аудио кодек: AAC
Видео: MPEG4 Video (H264) 480x272 23.98fps [400 Kbps]
Аудио: AAC 48000Hz stereo [129 Kbps]
# 01. Третий класс! (Senior!)
# 02. Уборка! (Clean-up!)
# 03. Ударник! (Drummer!)
# 04. Поездка! (Field trip!)
# 05. Одни в школе! (Staying Home!)
# 06. Сезон дождей! (Rainy season!)
# 07. Чаепитие! (Tea Party!)
# 08. Будущее! (The Future!)
# 09. Выпускные экзамены! (Final Exams!)
# 10. Учитель! (Teacher!)
# 11. Жара! (Hot!)
# 12. Летний фестиваль! (Summer Festival!)
# 13. Летнее послание! (Summer Messager!)
# 14. Летние занятия! (Summer Classes!)
# 15. Марафон! (Marathon!)
# 16. Старшеклассники! (Upperclassmen!)
# 17. Бездомные! (No Music Room!)
# 18. Главная роль! (Leading Role!)
# 19. Ромео и Джульетта! (Romeo and Juliet!)
# 20. Школьный фестиваль! (Once Again, School Festival!)
# 21. Выпускной альбом! (Yearbook!)
# 22. Экзамены! (Exams!)
# 23. После занятий! (After school!)
# 24. Выпускной! (Graduation Ceremony!)

Format : MPEG-4
Format profile : Base Media
Codec ID : isom
File size : 93.3 MiB
Duration : 24mn 29s
Overall bit rate : 532 Kbps
Encoded date : UTC 2010-09-20 22:30:52
Tagged date : UTC 2010-09-20 22:30:52

Video
ID : 1
Format : AVC
Format/Info : Advanced Video Codec
Format profile : <a href="mailto:Main@L3.0" class="postLink">Main@L3.0</a>
Format settings, CABAC : Yes
Format settings, ReFrames : 3 frames
Codec ID : avc1
Codec ID/Info : Advanced Video Coding
Duration : 24mn 29s
Bit rate mode : Variable
Bit rate : 400 Kbps
Maximum bit rate : 2 691 Kbps
Width : 480 pixels
Height : 272 pixels
Display aspect ratio : 16:9
Frame rate mode : Constant
Frame rate : 23.976 fps
Color space : YUV
Chroma subsampling : 4:2:0
Bit depth : 8 bits
Scan type : Progressive
Bits/(Pixel*Frame) : 0.128
Stream size : 70.1 MiB (75%)
Writing library : x264 core 56 svn-667M
Encoding settings : cabac=1 / ref=2 / deblock=1:0:0 / analyse=0x1:0x131 / me=umh / subme=6 / brdo=1 / mixed_ref=1 / me_range=16 / chroma_me=1 / trellis=1 / 8x8dct=0 / cqm=0 / deadzone=21,11 / chroma_qp_offset=0 / threads=2 / nr=0 / decimate=1 / mbaff=0 / bframes=3 / b_pyramid=0 / b_adapt=1 / b_bias=0 / direct=3 / wpredb=1 / bime=1 / keyint=250 / keyint_min=25 / scenecut=40(pre) / rc=2pass / bitrate=400 / ratetol=1.0 / rceq='blurCplx^(1-qComp)' / qcomp=0.60 / qpmin=10 / qpmax=51 / qpstep=4 / cplxblur=20.0 / qblur=0.5 / ip_ratio=1.40 / pb_ratio=1.30
Encoded date : UTC 2010-09-20 22:30:52
Tagged date : UTC 2010-09-20 22:30:57

Audio
ID : 2
Format : AAC
Format/Info : Advanced Audio Codec
Format version : Version 4
Format profile : LC
Format settings, SBR : No
Codec ID : 40
Duration : 24mn 29s
Bit rate mode : Variable
Bit rate : 129 Kbps
Maximum bit rate : 156 Kbps
Channel(s) : 2 channels
Channel positions : Front: L R
Sampling rate : 48.0 KHz
Stream size : 22.6 MiB (24%)
Encoded date : UTC 2010-09-20 22:30:56
Tagged date : UTC 2010-09-20 22:30:57



Трекер:  [ 04-Июн-2012 10:09 ]

  

Скачать .torrent

Размер .torrent файла 7 KB


Размер: 2.19 GB
Хэш (hash) релиза: ffb4e56b234d6ed7f8aaeb77a1b5e86a90db3436
Подписка на обновления:

Еще никто не оставлял запись к записи скачать торрент [ANIME] Кэйон!! K-On!! . Будь первым!

!Обратная связь