Скачать через торрент Стальная тревога Full Metal Panic! Фильм бесплатно в хорошем качестве torrent

Скачивайте на UnionPeer.org фильмы через торрент без регистрации. Новинки кино в хорошем качестве через торрент. На UnionPeer.org можно скачать через торрент фильмы 2014 и 2015 годов. Самые новые фильмы.

Скачать торрент Стальная тревога Full Metal Panic! бесплатно через .torrent фильм мультфильм сериал

Если у вас наблюдаются проблемы со скриншотами, переходом по ссылками, скачиванием торрентов - проблемы в блокировщике рекламы AdBlock. #хорошегоДня!


Статистика раздачи
Размер:  2.46 GB   |    Зарегистрирован:  5 лет 2 месяца   |    .torrent скачан:  126 раз   |   
Раздают:  1  
   
Загрузка...
 
Автор Сообщение

Galfimbul

avatar Galfimbul



Стальная тревога / Full Metal Panic!
Оригинальное Название: フルメタル・パニック!
Английское Название: Full Metal Panic!
Год выпуска: 2002
Период трансляции: c 08.01.2002 по 18.06.2002
Страна: Япония
Жанр: приключения, комедия, романтика, меха
Режиссер: Тигира Койти
Продолжительность: ТВ (24 эп.), 25 мин
Перевод: Профессиональный (многоголосый закадровый) [MC Entertainment]
Русские субтитры: нет
Описание:
Старшеклассница Канамэ Тидори оказывается в эпицентре невероятных приключений! За девушкой ведет охоту террористическая организация, чьи руководители убеждены, что Тидори обладает уникальными сверхъестественными способностями. На защиту школьницы встает секретная военизированная организация МИФРИЛ и ее агент Сосукэ Сагара. Сможет ли он защищать Тидори так, чтобы та не узнала всю правду - или доведет ее до белого каления, притворяясь помешанным на войне одноклассником? © world-art.ru
Качество: HDRip
Формат: MP4
Видео кодек: H.264
Аудио кодек: AAC
Видео: H.264, 368x272, 4:3, 512 Kbps, 23.976 fps
Аудио: AAC, 128 Kbps, 44 KHz, 2 channels
01. The Guy I Kinda Like is a Sergeant
02. I Want to Protect You
03. Lingerie Panic
04. Kidnap
05. Whispered - The Ones to Be Whispered
06. Still Alive
07. Boy Meets Girl
08. Part Time Steady
09. Dangerous Safe House
10. Run, Run, Run
11. Behemoth Awakens
12. One Night Stand
13. A Cat and a Kittens Rock and Roll
14. Is Narashino Burning?
15. The Wind That Blows at Home - Part 1
16. The Wind That Blows at Home - Part 2
17. The Wind That Blows at Home - Part 3
18. Deep-Sea Party
19. Engage 6 7
20. Venom`s Fire
21. Deep Trap
22. Jack in the Box
23. Giant`s Field
24. Into the Blue
General
Complete name : 01.mp4
Format : MPEG-4
Format profile : Base Media
Codec ID : isom
File size : 105 MiB
Duration : 22mn 49s
Overall bit rate : 644 Kbps
Writing application : XviD4PSP 6.0 / 53.12.0

Video
ID : 1
Format : AVC
Format/Info : Advanced Video Codec
Format profile : <a href="mailto:Main@L3.0" class="postLink">Main@L3.0</a>
Format settings, CABAC : Yes
Format settings, ReFrames : 2 frames
Codec ID : avc1
Codec ID/Info : Advanced Video Coding
Duration : 22mn 49s
Bit rate : 512 Kbps
Width : 368 pixels
Height : 272 pixels
Display aspect ratio : 4:3
Original display aspect ratio : 4:3
Frame rate mode : Constant
Frame rate : 23.976 fps
Color space : YUV
Chroma subsampling : 4:2:0
Bit depth : 8 bits
Scan type : Progressive
Bits/(Pixel*Frame) : 0.213
Stream size : 83.4 MiB (79%)
Writing library : x264 core 116 r2074M 2641b9e
Encoding settings : cabac=1 / ref=2 / deblock=1:1:1 / analyse=0x1:0x131 / me=hex / subme=7 / psy=1 / psy_rd=0.40:0.20 / mixed_ref=1 / me_range=16 / chroma_me=1 / trellis=1 / 8x8dct=0 / cqm=0 / deadzone=21,11 / fast_pskip=1 / chroma_qp_offset=-3 / threads=6 / sliced_threads=0 / nr=0 / decimate=1 / interlaced=0 / bluray_compat=0 / constrained_intra=0 / bframes=3 / b_pyramid=0 / b_adapt=2 / b_bias=0 / direct=3 / weightb=1 / open_gop=0 / weightp=2 / keyint=230 / keyint_min=23 / scenecut=40 / intra_refresh=0 / rc_lookahead=40 / rc=2pass / mbtree=1 / bitrate=512 / ratetol=1.0 / qcomp=0.60 / qpmin=10 / qpmax=51 / qpstep=4 / cplxblur=20.0 / qblur=0.5 / vbv_maxrate=2500 / vbv_bufsize=2000 / nal_hrd=none / ip_ratio=1.40 / aq=1:0.60
Language : Japanese

Audio
ID : 2
Format : AAC
Format/Info : Advanced Audio Codec
Format profile : LC
Codec ID : 40
Duration : 22mn 48s
Bit rate mode : Constant
Bit rate : 128 Kbps
Channel(s) : 2 channels
Channel positions : Front: L R
Sampling rate : 48.0 KHz
Compression mode : Lossy
Stream size : 20.9 MiB (20%)
Language : Russian


Трекер:  [ 05-Июн-2012 11:01 ]

  

Скачать .torrent

Размер .torrent файла 14 KB


Размер: 2.46 GB
Хэш (hash) релиза: 75d6f794adf0313e57dcdcf1c359fd6c7442e090
Подписка на обновления:

Еще никто не оставлял запись к записи скачать торрент Стальная тревога Full Metal Panic! . Будь первым!

!Обратная связь