Скачать через торрент [VIDEO4PSP] Точка обстрела Vantage Point Фильм бесплатно в хорошем качестве torrent

Скачивайте на UnionPeer.org фильмы через торрент без регистрации. Новинки кино в хорошем качестве через торрент. На UnionPeer.org можно скачать через торрент фильмы 2014 и 2015 годов. Самые новые фильмы.

Скачать торрент [VIDEO4PSP] Точка обстрела Vantage Point бесплатно через .torrent фильм мультфильм сериал

Если у вас наблюдаются проблемы со скриншотами, переходом по ссылками, скачиванием торрентов - проблемы в блокировщике рекламы AdBlock. #хорошегоДня!


Статистика раздачи
Размер:  504 MB   |    Зарегистрирован:  5 лет 4 месяца   |    .torrent скачан:  67 раз   |   
Раздают:  1  
   
Загрузка...
 
Автор Сообщение

Galfimbul

avatar Galfimbul


Точка обстрела / Vantage point
Оригинальное название: Vantage point
Год выпуска: 2008
Страна: США
Жанр: Боевик, Триллер, Драма
Продолжительность: 01:30:05
Перевод: Профессиональный (полное дублирование)
Режиссер: Пит Трэвис / Pete Travis

В ролях: Дэннис Куэйд /Dennis Quaid/, Мэттью Фокс /Matthew Fox/, Форест Уитейкер /Forest Whitaker/, Сигурни Уивер /Sigourney Weaver/, Брюс МакГилл /Bruce McGill/, Эдгар Рамирез /Edgar Ramirez/, Зои Салдана/Zoe Saldana/

Описание: Во время публичного выступления на антитеррористическом форуме в Саламанке (Испания), от рук экстремистов погибает президент США. Ha глaзax у цeлoй тoлпы. Bce вcё видeли… A вcё ли? A ecли пocмoтpeть eщe paз? 8 чeлoвeк мoгут увидeть oднo и тo жe coвepшeннo пo-paзнoму. Восемь свидетелей. Восемь версий. Toлькo ecли cлoжить вce куcoчки вмecтe — мoжнo coбpaть вcю мoзaику.
Качество: HDRip
Формат: MP4
Видео кодек: H.264
Аудио кодек: AAC
Видео: MPEG4 Video (H264) 480x208 23.976fps 650 kbps
Аудио: AAC 48000Hz stereo 129 kbps
General
Complete name : ТОЧКА ОБСТРЕЛА.mp4
Format : MPEG-4
Format profile : Base Media
Codec ID : isom
File size : 504 MiB
Duration : 1h 30mn
Overall bit rate : 782 Kbps
Encoded date : UTC 2011-02-07 10:07:16
Tagged date : UTC 2011-02-07 10:07:16

Video
ID : 1
Format : AVC
Format/Info : Advanced Video Codec
Format profile : <a href="mailto:Main@L2.0" class="postLink">Main@L2.0</a>
Format settings, CABAC : Yes
Format settings, ReFrames : 1 frame
Codec ID : avc1
Codec ID/Info : Advanced Video Coding
Duration : 1h 30mn
Bit rate mode : Variable
Bit rate : 650 Kbps
Maximum bit rate : 2 066 Kbps
Width : 480 pixels
Height : 208 pixels
Display aspect ratio : 2.35:1
Frame rate mode : Constant
Frame rate : 23.976 fps
Color space : YUV
Chroma subsampling : 4:2:0
Bit depth : 8 bits
Scan type : Progressive
Bits/(Pixel*Frame) : 0.272
Stream size : 419 MiB (83%)
Writing library : x264 core 65 r999kMod cc51047
Encoding settings : cabac=1 / ref=1 / deblock=1:0:0 / analyse=0x1:0x111 / me=hex / subme=6 / psy_rd=1.0:0.0 / mixed_ref=0 / me_range=16 / chroma_me=1 / trellis=0 / 8x8dct=0 / cqm=0 / deadzone=21,11 / chroma_qp_offset=-2 / threads=2 / thread_queue=2 / nr=0 / decimate=1 / mbaff=0 / bframes=0 / keyint=250 / keyint_min=25 / scenecut=40(pre) / rc=2pass / bitrate=650 / ratetol=1.0 / qcomp=0.60 / qpmin=10 / qpmax=51 / qpstep=4 / cplxblur=20.0 / qblur=0.5 / ip_ratio=1.40 / aq=1:1.00
Encoded date : UTC 2011-02-07 10:07:16
Tagged date : UTC 2011-02-07 10:08:55

Audio
ID : 2
Format : AAC
Format/Info : Advanced Audio Codec
Format version : Version 4
Format profile : LC
Format settings, SBR : No
Codec ID : 40
Duration : 1h 30mn
Bit rate mode : Variable
Bit rate : 129 Kbps
Maximum bit rate : 211 Kbps
Channel(s) : 2 channels
Channel positions : Front: L R
Sampling rate : 48.0 KHz
Stream size : 83.1 MiB (16%)
Encoded date : UTC 2011-02-07 10:08:51
Tagged date : UTC 2011-02-07 10:08:55



Трекер:  [ 02-Июн-2012 20:56 ]

  

Скачать .torrent

Размер .torrent файла 20 KB


Размер: 504 MB
Хэш (hash) релиза: f27192b2a62c98ea045e17ba5458b924b526e00f
Подписка на обновления:

Еще никто не оставлял запись к записи скачать торрент [VIDEO4PSP] Точка обстрела Vantage Point . Будь первым!

!Обратная связь