Скачать через торрент [VIDEO4PSP] Миссия Серенити Serenity Фильм бесплатно в хорошем качестве torrent

Скачивайте на UnionPeer.org фильмы через торрент без регистрации. Новинки кино в хорошем качестве через торрент. На UnionPeer.org можно скачать через торрент фильмы 2014 и 2015 годов. Самые новые фильмы.

Скачать торрент [VIDEO4PSP] Миссия Серенити Serenity бесплатно через .torrent фильм мультфильм сериал

Если у вас наблюдаются проблемы со скриншотами, переходом по ссылками, скачиванием торрентов - проблемы в блокировщике рекламы AdBlock. #хорошегоДня!


Статистика раздачи
Размер:  630 MB   |    Зарегистрирован:  5 лет 2 месяца   |    .torrent скачан:  52 раза   |   
Раздают:  1  
   
Загрузка...
 
Автор Сообщение

Galfimbul

avatar Galfimbul


Миссия «Серенити»
«They aim to misbehave.»
Оригинальное название: Serenity
Год выпуска: 2005
Страна: США
Студия: ''Universal Pictures / Barry Mendel Productions''
Жанр: фантастика, боевик, триллер, приключения
Продолжительность: ~ 120 мин (01:59:02)
Перевод : профессиональный, полное дублирование
Режиссер: Джосс Уидон
Сценарий: Джосс Уидон
Продюссер: Кристофер Бьюкэнэн, Дэвид В. Лестер, Бэрри Мендел
В ролях: Натан Филлион, Джина Торрес, Алан Тьюдик, Морена Баккарин, Адам Болдуин, Джевел Стэйт, Шон Мехер, Саммер Гло, Рон Гласс, Чиветель Эджиофор, Дэвид Крумхольц, Майкл Хичкок, Сара Полстон, Ян Фельдман, Рафаэль Фельдман
Голоса дубляжа: Алексей Колган, Ольга Плетнева, Татьяна Шитова, Юрий Деркач, Сергей Быстрицкий
Описание:
Космический «морской волк» и ветеран Гражданской Галактической войны Малькольм «Мэл» Рейнольдс — теперь всего лишь капитан транспортного корабля. Когда они взяли на борт пассажиров — молодого доктора и его странную сестру с телепатическими способностями, ни он, ни его товарищи не предполагали, в какую историю ввяжутся. Спасаясь сразу от нескольких могущественных врагов — и от военных сил тоталитарного Вселенского Альянса, и от ужасных каннибалов Жнецов, команда корабля даже не догадывалась, какая угроза скрывается на борту «Серенити».

Тех. информация:
Качество: BDRip
Формат: MP4 PSP AVC
Кодек видео: x.264
Кодек аудио: AAC
Видео: 480x208 (2.35:1), 23.976 fps, AVC, H.264, ~ 608 kbps avg, 0.254 bit/pixel
Аудио: Russian 48 kHz, AAC-LC, 2/0 (L,R) ch, ABR, ~128 kbps

General
Complete name : E:\Ripped_PSP\Миссия Серенити (Serenity, 2005) BDRip.mp4
Format : MPEG-4
Format profile : Base Media
Codec ID : isom
File size : 630 MiB
Duration : 1h 59mn
Overall bit rate : 739 Kbps
Encoded date : UTC 2011-03-23 04:31:10
Tagged date : UTC 2011-03-23 04:31:10

Video
ID : 1
Format : AVC
Format/Info : Advanced Video Codec
Format profile : <a href="mailto:Main@L3.0" class="postLink">Main@L3.0</a>
Format settings, CABAC : Yes
Format settings, ReFrames : 3 frames
Format settings, GOP : M=1, N=48
Codec ID : avc1
Codec ID/Info : Advanced Video Coding
Duration : 1h 59mn
Bit rate mode : Variable
Bit rate : 608 Kbps
Maximum bit rate : 3 310 Kbps
Width : 480 pixels
Height : 208 pixels
Display aspect ratio : 2.35:1
Frame rate mode : Constant
Frame rate : 23.976 fps
Color space : YUV
Chroma subsampling : 4:2:0
Bit depth : 8 bits
Scan type : Progressive
Bits/(Pixel*Frame) : 0.254
Stream size : 518 MiB (82%)
Title : Imported with GPAC 0.4.6-DEV (internal rev. 7)
Writing library : x264 core 108 r1790 8eaf8a6
Encoding settings : cabac=1 / ref=3 / deblock=1:-1:0 / analyse=0x1:0x131 / me=umh / subme=7 / psy=1 / psy_rd=1.00:0.20 / mixed_ref=1 / me_range=16 / chroma_me=1 / trellis=2 / 8x8dct=0 / cqm=0 / deadzone=21,11 / fast_pskip=0 / chroma_qp_offset=-3 / threads=3 / sliced_threads=0 / nr=0 / decimate=0 / interlaced=0 / constrained_intra=0 / bframes=3 / b_pyramid=0 / b_adapt=2 / b_bias=0 / direct=3 / weightb=1 / open_gop=0 / weightp=2 / keyint=250 / keyint_min=23 / scenecut=40 / intra_refresh=0 / rc_lookahead=60 / rc=2pass / mbtree=1 / bitrate=608 / ratetol=1.0 / qcomp=0.60 / qpmin=10 / qpmax=51 / qpstep=4 / cplxblur=20.0 / qblur=0.5 / ip_ratio=1.40 / aq=1:1.00
Encoded date : UTC 2011-03-23 04:31:10
Tagged date : UTC 2011-03-23 04:31:38

Audio
ID : 2
Format : AAC
Format/Info : Advanced Audio Codec
Format profile : LC
Codec ID : 40
Duration : 1h 59mn
Bit rate mode : Variable
Bit rate : 128 Kbps
Maximum bit rate : 189 Kbps
Channel(s) : 2 channels
Channel positions : Front: L R
Sampling rate : 48.0 KHz
Compression mode : Lossy
Stream size : 109 MiB (17%)
Encoded date : UTC 2011-03-23 04:31:35
Tagged date : UTC 2011-03-23 04:31:38


Трекер:  [ 02-Июн-2012 20:57 ]

  

Скачать .torrent

Размер .torrent файла 12 KB


Размер: 630 MB
Хэш (hash) релиза: 82ce607b3bd95e65c5464d4694afd6892f0832b7
Подписка на обновления:

Еще никто не оставлял запись к записи скачать торрент [VIDEO4PSP] Миссия Серенити Serenity . Будь первым!

!Обратная связь