Скачать через торрент [FILM] Неуловимый Anthony Zimmer Фильм бесплатно в хорошем качестве torrent

Скачивайте на UnionPeer.org фильмы через торрент без регистрации. Новинки кино в хорошем качестве через торрент. На UnionPeer.org можно скачать через торрент фильмы 2014 и 2015 годов. Самые новые фильмы.

Скачать торрент [FILM] Неуловимый Anthony Zimmer бесплатно через .torrent фильм мультфильм сериал

Если у вас наблюдаются проблемы со скриншотами, переходом по ссылками, скачиванием торрентов - проблемы в блокировщике рекламы AdBlock. #хорошегоДня!


Статистика раздачи
Размер:  470 MB   |    Зарегистрирован:  5 лет 2 месяца   |    .torrent скачан:  26 раз   |   
Раздают:  1  
   
Загрузка...
 
Автор Сообщение

Galfimbul

avatar Galfimbul




Неуловимый
Оригинальное название: Anthony Zimmer
Год выпуска: 2005
Страна: Франция
Жанр: триллер, мелодрама, драма, криминал
Продолжительность:01.28.44
Перевод: Профессиональный (полное дублированией)
Режиссёр:

Жером Саль
В ролях:

Софи Марсо
Иван Атталь
Сами Фрей
Жилль Лелуш
Даниэль Ольбрыхский
Самир Гесми
Димитри Рато
Никки Марбо
Olivier Chenevat
Alban Casterman
Описание: Интерпол преследует неуловимого мошенника Энтони Циммера, специализирующегося на отмывании денег для русской мафии. Поймать Циммера стало вдесятеро трудней после того, как он сделал пластическую операцию и полностью изменил свою внешность. Теперь единственная ниточка к мошеннику — обворожительная красотка Кьяра, любовница Циммера.
Но Кьяра, понимая, что ее попытаются использовать, заводит интрижку с простоватым парнем Франсуа. Некоторое сходство Франсуа и Циммера является вполне достаточным основанием и для спецслужб, и для мафии, чтобы попытаться убить Франсуа…
Качество: HDRip
Формат: MP4
Видео кодек: H.264
Аудио кодек: AAC
Видео: MPEG4 Video (H264) 480x208 (11685:4966) 24.00fps [Video] 608 Kbps,
Аудио: AAC 48000Hz stereo 129 Kbps [Audio]
Format : MPEG-4
Format profile : Base Media
Codec ID : isom
File size : 470 MiB
Duration : 1h 28mn
Overall bit rate : 740 Kbps
Encoded date : UTC 2010-08-20 23:48:55
Tagged date : UTC 2010-08-20 23:48:55

Video
ID : 1
Format : AVC
Format/Info : Advanced Video Codec
Format profile : <a href="mailto:Main@L3.0" class="postLink">Main@L3.0</a>
Format settings, CABAC : Yes
Format settings, ReFrames : 3 frames
Codec ID : avc1
Codec ID/Info : Advanced Video Coding
Duration : 1h 28mn
Bit rate mode : Variable
Bit rate : 608 Kbps
Maximum bit rate : 4 244 Kbps
Width : 480 pixels
Height : 208 pixels
Display aspect ratio : 2.35:1
Original display aspect ratio : 2.35:1
Frame rate mode : Constant
Frame rate : 24.000 fps
Color space : YUV
Chroma subsampling : 4:2:0
Bit depth : 8 bits
Scan type : Progressive
Bits/(Pixel*Frame) : 0.254
Stream size : 386 MiB (82%)
Writing library : x264 core 56 svn-667M
Encoding settings : cabac=1 / ref=2 / deblock=1:0:0 / analyse=0x1:0x131 / me=umh / subme=6 / brdo=1 / mixed_ref=1 / me_range=16 / chroma_me=1 / trellis=1 / 8x8dct=0 / cqm=0 / deadzone=21,11 / chroma_qp_offset=0 / threads=2 / nr=0 / decimate=1 / mbaff=0 / bframes=3 / b_pyramid=0 / b_adapt=1 / b_bias=0 / direct=3 / wpredb=1 / bime=1 / keyint=250 / keyint_min=25 / scenecut=40(pre) / rc=2pass / bitrate=608 / ratetol=1.0 / rceq='blurCplx^(1-qComp)' / qcomp=0.60 / qpmin=10 / qpmax=51 / qpstep=4 / cplxblur=20.0 / qblur=0.5 / ip_ratio=1.40 / pb_ratio=1.30
Encoded date : UTC 2010-08-20 23:48:55
Tagged date : UTC 2010-08-20 23:49:09

Audio
ID : 2
Format : AAC
Format/Info : Advanced Audio Codec
Format version : Version 4
Format profile : LC
Format settings, SBR : No
Codec ID : 40
Duration : 1h 28mn
Bit rate mode : Variable
Bit rate : 129 Kbps
Maximum bit rate : 174 Kbps
Channel(s) : 2 channels
Channel positions : Front: L R
Sampling rate : 48.0 KHz
Stream size : 81.9 MiB (17%)
Encoded date : UTC 2010-08-20 23:49:04
Tagged date : UTC 2010-08-20 23:49:09


Трекер:  [ 02-Июн-2012 20:58 ]

  

Скачать .torrent

Размер .torrent файла 19 KB


Размер: 470 MB
Хэш (hash) релиза: c938f856b0a62f27dd6039c86a181f051e03ac1a
Подписка на обновления:

Еще никто не оставлял запись к записи скачать торрент [FILM] Неуловимый Anthony Zimmer . Будь первым!

!Обратная связь