Скачать через торрент Плохие парни 2 Bad Boys 2 Фильм бесплатно в хорошем качестве torrent

Скачивайте на UnionPeer.org фильмы через торрент без регистрации. Новинки кино в хорошем качестве через торрент. На UnionPeer.org можно скачать через торрент фильмы 2014 и 2015 годов. Самые новые фильмы.

Скачать торрент Плохие парни 2 Bad Boys 2 бесплатно через .torrent фильм мультфильм сериал

Если у вас наблюдаются проблемы со скриншотами, переходом по ссылками, скачиванием торрентов - проблемы в блокировщике рекламы AdBlock. #хорошегоДня!


Статистика раздачи
Размер:  817 MB   |    Зарегистрирован:  5 лет 2 месяца   |    .torrent скачан:  170 раз   |   
Раздают:  1  
   
Загрузка...
 
Автор Сообщение

Galfimbul

avatar Galfimbul


Плохие парни 2 / Bad boys 2
Оригинальное название: Bad Boys 2
Год выпуска: 2003 г.
Страна: США
Жанр: боевик, комедия, криминал
Продолжительность: 02:20:43
Перевод:

Профессиональный (полное дублирование)

Cубтитры: нет
Режиссер: Майкл Бэй / Michael Bay
В ролях: Мартин Лоуренс, Уилл Смит, Жорди Молья, Гэбриэл Юнион, Петер Стормаре, Тереза Рэндл, Джо Пантольяно, Майкл Шеннон, Джон Седа, Юл Васкез

Описание: Детективы отдела по борьбе с незаконным оборотом наркотиков Майк Лоури и Маркус Бэрнетт получают задание расследовать схему доставки нового наркотика в Майами. Это расследование выводит их на искусный заговор, сплетенный местным наркобароном с целью поставить под контроль всю торговлю наркотиками в городе.
По чистой случайности про эти амбициозные планы узнают и остальные игроки нелегального рынка, в результате чего вспыхивает настоящая война. Несмотря на это, Майку и Маркусу удается успешно справляться с натиском наркомафии и сажать дилеров за решетку. Но ситуация начинает выходить из-под контроля, когда Майк не на шутку увлекается сестрой Маркуса, Сидни.
Торжество закона висит на волоске — ведь вместо выполнения спецзаданий детективы начинают выяснять отношения между собой…

Качество видео: HDTVRip
Формат: MP4
Видео кодек: H.264
Аудио кодек: AAC
Видео: 480x208 (2.35:1), 25.000 fps, x264 ~680 kbps avg, 0.272 bit/pixel
Аудио: AAC-LC VBR 2 channels, 48.0 KHz ~128 Kbps Профессиональный (полное дублирование)
General
Complete name : D:\Фильмы\PSP\Боевики\Bad Boys 2 (2003)\Bad Boys 2 (2003).mp4
Format : MPEG-4
Format profile : Base Media
Codec ID : isom
File size : 817 MiB
Duration : 2h 20mn
Overall bit rate mode : Variable
Overall bit rate : 811 Kbps
Encoded date : UTC 2012-03-17 04:13:04
Tagged date : UTC 2012-03-17 04:13:04
Writing application : Yamb 2.1.0.0

Video
ID : 1
Format : AVC
Format/Info : Advanced Video Codec
Format profile : <a href="mailto:Main@L3.0" class="postLink">Main@L3.0</a>
Format settings, CABAC : Yes
Format settings, ReFrames : 3 frames
Codec ID : avc1
Codec ID/Info : Advanced Video Coding
Duration : 2h 20mn
Bit rate : 680 Kbps
Maximum bit rate : 2 427 Kbps
Width : 480 pixels
Height : 208 pixels
Display aspect ratio : 2.35:1
Frame rate mode : Constant
Frame rate : 25.000 fps
Color space : YUV
Chroma subsampling : 4:2:0
Bit depth : 8 bits
Scan type : Progressive
Bits/(Pixel*Frame) : 0.272
Stream size : 684 MiB (84%)
Writing library : x264 core 120 r2146 bcd41db
Encoding settings : cabac=1 / ref=3 / deblock=1:-1:0 / analyse=0x1:0x131 / me=umh / subme=9 / psy=1 / psy_rd=1.00:0.50 / mixed_ref=1 / me_range=16 / chroma_me=1 / trellis=1 / 8x8dct=0 / cqm=0 / deadzone=21,11 / fast_pskip=0 / chroma_qp_offset=-4 / threads=1 / sliced_threads=0 / nr=0 / decimate=0 / interlaced=0 / bluray_compat=0 / constrained_intra=0 / bframes=3 / b_pyramid=0 / b_adapt=1 / b_bias=0 / direct=3 / weightb=1 / open_gop=0 / weightp=1 / keyint=240 / keyint_min=24 / scenecut=40 / intra_refresh=0 / rc=2pass / mbtree=0 / bitrate=680 / ratetol=1.0 / qcomp=0.60 / qpmin=0 / qpmax=69 / qpstep=4 / cplxblur=20.0 / qblur=0.5 / ip_ratio=1.40 / pb_ratio=1.30 / aq=1:1.00
Encoded date : UTC 2012-03-17 02:57:54
Tagged date : UTC 2012-03-17 04:14:20

Audio
ID : 2
Format : AAC
Format/Info : Advanced Audio Codec
Format profile : LC
Codec ID : 40
Duration : 2h 20mn
Bit rate mode : Variable
Bit rate : 128 Kbps
Maximum bit rate : 179 Kbps
Channel(s) : 2 channels
Channel positions : Front: L R
Sampling rate : 48.0 KHz
Compression mode : Lossy
Stream size : 129 MiB (16%)
Encoded date : UTC 2012-03-17 04:14:04
Tagged date : UTC 2012-03-17 04:14:20
x264.exe: --pass 2 --bitrate 680 --preset medium --level 3.0 --deblock -1:0 --direct auto --b-pyramid none --weightp 1 --no-fast-pskip --no-dct-decimate --psy-rd 1.00:0.50 --partitions p8x8,b8x8,i4x4,p4x4 --no-8x8dct --subme 9 --me umh --no-mbtree --keyint 240 --stats "D:\Temp\0072.log" --sar 1:1 --output "D:\Temp\0072.264" "D:\Temp\0072.avs"

avs [info]: 480x208p 1:1 @ 25/1 fps (cfr)
x264 [info]: using SAR=1/1
x264 [info]: using cpu capabilities: MMX2 SSE2Slow SlowCTZ
x264 [info]: profile Main, level 3.0

x264 [info]: frame I:4422 Avg QP:19.82 size: 14162
x264 [info]: frame P:112079 Avg QP:22.45 size: 4835
x264 [info]: frame B:94586 Avg QP:24.48 size: 1194
x264 [info]: consecutive B-frames: 22.4% 49.2% 12.7% 15.6%
x264 [info]: mb I I16..4: 17.9% 0.0% 82.1%
x264 [info]: mb P I16..4: 3.7% 0.0% 9.3% P16..4: 41.2% 20.0% 16.3% 2.8% 1.0% skip: 5.7%
x264 [info]: mb B I16..4: 0.2% 0.0% 0.6% B16..8: 37.0% 11.1% 3.7% direct: 4.3% skip:43.1% L0:30.1% L1:43.7% BI:26.2%
x264 [info]: direct mvs spatial:74.5% temporal:25.5%
x264 [info]: coded y,uvDC,uvAC intra: 83.1% 84.9% 63.0% inter: 34.8% 34.0% 17.2%
x264 [info]: i16 v,h,dc,p: 34% 23% 12% 32%
x264 [info]: i4 v,h,dc,ddl,ddr,vr,hd,vl,hu: 8% 9% 5% 9% 14% 13% 14% 11% 16%
x264 [info]: i8c dc,h,v,p: 39% 26% 19% 15%
x264 [info]: Weighted P-Frames: Y:12.4% UV:6.1%
x264 [info]: ref P L0: 80.4% 12.4% 7.1%
x264 [info]: ref B L0: 88.4% 11.6%
x264 [info]: kb/s:679.78

x264 [total]: encoded 211087 frames, 9.63 fps, 679.78 kb/s


Трекер:  [ 02-Июн-2012 21:23 ]

  

Скачать .torrent

Размер .torrent файла 16 KB


Размер: 817 MB
Хэш (hash) релиза: 2582f09016df91c59d649bb89356b7d16ae913a8
Подписка на обновления:

Торренты, похожие на Плохие парни 2 Bad Boys 2 скачать торрент

Форум Название Автор Размер S L Добавлен
Зарубежные фильмы до 2016 ·· Плохие парни 2 / Bad Boys 2 (Майкл Бэй / Michael Bay) [2003 г., Комедия,боевик, HDTVRip] Galfimbul 821938176784 MB 0 0 1347711600

15:20

15-Сен-12

Зарубежные фильмы до 2016 ·· Плохие парни 2 / Bad Boys 2 (Майкл Бэй / Michael Bay) [2003, США, боевик, триллер, комедия, криминал, HDTV 1080i] Nomak 1409090907213.12 GB 0 0 1295725741

22:49

22-Янв-11

Зарубежные фильмы до 2016 ·· Плохие парни 2 / Bad Boys II (Майкл Бэй / Michael Bay) [2003, США, боевик, триллер, комедия, криминал, BDRip 1080p] Dub (Невафильм) + MVO (CDV) + DVO + 2x AVO (Гаврилов, Живов) + 2x VO + Ukr (Інтер) + Original Eng + Sub Rus, Eng Galfimbul 2678331276124.94 GB 0 0 1476807909

19:25

18-Окт-16

Зарубежные фильмы до 2016 ·· Плохие парни 2 / Bad Boys II (Майкл Бэй / Michael Bay) [2003, США, Комедия, боевик, BDRip-AVC] [4K Remastered] Dub + AVO (Гаврилов) + Original Eng, Sub (Rus, Eng) Galfimbul 64800862146.04 GB 0 0 1449433644

23:27

6-Дек-15

Зарубежные фильмы до 2016 ·· Плохие парни 2 / Bad Boys II (Майкл Бэй / Michael Bay) [2003, США, Боевик, триллер, комедия, криминал, BDRip] Dub Galfimbul 15659212801.46 GB 0 0 1448872065

11:27

30-Ноя-15

Зарубежные фильмы до 2016 ·· Плохие парни 2 / Bad Boys II (Майкл Бэй / Michael Bay) [2003, США, боевик, триллер, комедия, криминал, WEB-DL 720p] Dub + AVO (Гаврилов) + Original Eng + Subs (Rus, Eng) L 65094172576.06 GB 0 0 1367959614

23:46

7-Май-13

Зарубежные фильмы до 2016 ·· Плохие парни 2 / Bad Boys II (Майкл Бэй / Michael Bay) [2003 г., боевик, триллер, комедия, криминал, DVDRip-AVC] Dub, Гаврилов + Original, Rus Sub + Eng Sub 3m1L 23373912712.18 GB 0 0 1290621027

20:50

24-Ноя-10

Зарубежные фильмы до 2016 ·· Плохие парни 1-2 / Bad Boys 1-2 (Майкл Бэй) [1995-2003 г., боевик, комедия, драма, криминал, BDRip|WEB-DLRip] от R.G. 25 Кадр CooL 45429166084.23 GB 0 0 1371394135

17:48

16-Июн-13

Зарубежные фильмы до 2016 ·· Плохие парни / Bad Boys (Майкл Бэй / Michael Bay) [1995 г., боевик, триллер, комедия, драма, криминал, BDRip] [720p / DVD5 / DXVA] Dub + Original + Sub (rus, 2 x eng) Galfimbul 50343198904.69 GB 0 0 1295729558

23:52

22-Янв-11

Еще никто не оставлял запись к записи скачать торрент Плохие парни 2 Bad Boys 2 . Будь первым!

!Обратная связь