Скачать через торрент [FILM] Дублёры The Replacements Фильм бесплатно в хорошем качестве torrent

Скачивайте на UnionPeer.org фильмы через торрент без регистрации. Новинки кино в хорошем качестве через торрент. На UnionPeer.org можно скачать через торрент фильмы 2014 и 2015 годов. Самые новые фильмы.

Скачать торрент [FILM] Дублёры The Replacements бесплатно через .torrent фильм мультфильм сериал

Если у вас наблюдаются проблемы со скриншотами, переходом по ссылками, скачиванием торрентов - проблемы в блокировщике рекламы AdBlock. #хорошегоДня!


Статистика раздачи
Размер:  634 MB   |    Зарегистрирован:  5 лет 2 месяца   |    .torrent скачан:  47 раз   |   
Раздают:  1  
   
Загрузка...
 
Автор Сообщение

Galfimbul

avatar Galfimbul


Дублёры
Оригинальное название: The Replacements
Год выпуска: 2000 г.
Страна: США
Жанр: комедия, спорт
Продолжительность: 01:53:24
Перевод: Профессиональный (дублированный)
Режиссер: Говард Дойч / Howard Deutch

В ролях: Киану Ривз /Keanu Reeves/, Джин Хэкман /Gene Hackman/, Брук Лангтон /Brooke Langton/, Орландо Джонс /Orlando Jones/, Фэйсон Лав /Faizon Love/

Описание: Еще вчера они были простыми работягами. Сейчас все изменилось: настал день их славы, когда, замещая бастующих профессионалов, они стали Дублерами. Невзрачные простаки превращаются в суперзвезд футбола!
Шэйну Фалько, профессионалу американского футбола, пришлось возглавить команду недотеп, собранную ветераном спорта Джимми Макгинти. Поддерживать боевой дух Дублеров собирается очаровательная Аннабель Фаррел и коллектив бывших стриптизерш.
«Слава останется навечно. Девчонки будут сходить с ума», — говорит Фалько своим игрокам. Его план игры рассчитан безукоризненно. Их сила — в их непредсказуемости…

Качество видео: HDTVRip
Формат: MP4
Видео кодек: H.264
Аудио кодек: AAC
Видео: MPEG4 Video (H264) 480x272 25.000fps 650 kbps
Аудио: AAC 48000Hz stereo 129 kbps
General
Complete name : ДУБЛЁРЫ.mp4
Format : MPEG-4
Format profile : Base Media
Codec ID : isom
File size : 634 MiB
Duration : 1h 53mn
Overall bit rate : 782 Kbps
Encoded date : UTC 2011-10-08 19:49:31
Tagged date : UTC 2011-10-08 19:49:31

Video
ID : 1
Format : AVC
Format/Info : Advanced Video Codec
Format profile : <a href="mailto:Main@L2.1" class="postLink">Main@L2.1</a>
Format settings, CABAC : Yes
Format settings, ReFrames : 1 frame
Codec ID : avc1
Codec ID/Info : Advanced Video Coding
Duration : 1h 53mn
Bit rate mode : Variable
Bit rate : 650 Kbps
Maximum bit rate : 2 089 Kbps
Width : 480 pixels
Height : 272 pixels
Display aspect ratio : 16:9
Frame rate mode : Constant
Frame rate : 25.000 fps
Color space : YUV
Chroma subsampling : 4:2:0
Bit depth : 8 bits
Scan type : Progressive
Bits/(Pixel*Frame) : 0.199
Stream size : 527 MiB (83%)
Writing library : x264 core 65 r999kMod cc51047
Encoding settings : cabac=1 / ref=1 / deblock=1:0:0 / analyse=0x1:0x111 / me=hex / subme=6 / psy_rd=1.0:0.0 / mixed_ref=0 / me_range=16 / chroma_me=1 / trellis=0 / 8x8dct=0 / cqm=0 / deadzone=21,11 / chroma_qp_offset=-2 / threads=2 / thread_queue=2 / nr=0 / decimate=1 / mbaff=0 / bframes=0 / keyint=250 / keyint_min=25 / scenecut=40(pre) / rc=2pass / bitrate=650 / ratetol=1.0 / qcomp=0.60 / qpmin=10 / qpmax=51 / qpstep=4 / cplxblur=20.0 / qblur=0.5 / ip_ratio=1.40 / aq=1:1.00
Encoded date : UTC 2011-10-08 19:49:31
Tagged date : UTC 2011-10-08 19:52:56

Audio
ID : 2
Format : AAC
Format/Info : Advanced Audio Codec
Format version : Version 4
Format profile : LC
Format settings, SBR : No
Codec ID : 40
Duration : 1h 53mn
Bit rate mode : Variable
Bit rate : 129 Kbps
Maximum bit rate : 141 Kbps
Channel(s) : 2 channels
Channel positions : Front: L R
Sampling rate : 48.0 KHz
Stream size : 105 MiB (16%)
Encoded date : UTC 2011-10-08 19:52:45
Tagged date : UTC 2011-10-08 19:52:56



Трекер:  [ 02-Июн-2012 20:59 ]

  

Скачать .torrent

Размер .torrent файла 13 KB


Размер: 634 MB
Хэш (hash) релиза: 8ece41c6e2ab4bf9e7f143562e0f4c14a47d6afc
Подписка на обновления:

Еще никто не оставлял запись к записи скачать торрент [FILM] Дублёры The Replacements . Будь первым!

!Обратная связь