Скачать через торрент [VIDEO4PSP] Крокодил Данди "Crocodile" Dundee Фильм бесплатно в хорошем качестве torrent

Скачивайте на UnionPeer.org фильмы через торрент без регистрации. Новинки кино в хорошем качестве через торрент. На UnionPeer.org можно скачать через торрент фильмы 2014 и 2015 годов. Самые новые фильмы.

Скачать торрент [VIDEO4PSP] Крокодил Данди "Crocodile" Dundee бесплатно через .torrent фильм мультфильм сериал

Если у вас наблюдаются проблемы со скриншотами, переходом по ссылками, скачиванием торрентов - проблемы в блокировщике рекламы AdBlock. #хорошегоДня!


Статистика раздачи
Размер:  517 MB   |    Зарегистрирован:  5 лет 2 месяца   |    .torrent скачан:  48 раз   |   
Раздают:  1  
   
Загрузка...
 
Автор Сообщение

Galfimbul

avatar Galfimbul


Крокодил Данди / "Crocodile" Dundee
Оригинальное название: "Crocodile" Dundee
Год выпуска: 1986
Страна: США
Жанр: комедия, приключения
Продолжительность: 1:37:36
Перевод: Профессиональный (полное дублирование)
Режиссер: Питер Фэймэн /Peter Faiman

В ролях: Пол Хоган,Линда Козловски,Джон Майллон,Дэвид Гулпилил,Ричи Сингер
Мэгги Блинко,Стив Рэкмен,Джерри Скилтон,Терри Гилл,Питер Тернбулл

Описание: Сью Чарлтон, молодая журналистка из Нью-Йорка, дочь газетного магната,
решает сделать репортаж о Мике Данди по прозвищу Крокодил,
австралийском охотнике за рептилиями. После поездки в Австралию,
в дикие пустоши, где Данди занимается своим опасным промыслом,
она возвращается в Америку, а влюбившийся «осси» (так американцы
язвительно величают жителей пятого континента) отправляется вслед
за Сью в самые «джунгли» Нью-Йорка.
Качество: HDRip
Формат: MP4
Видео кодек: H.264
Аудио кодек: AAC
Видео: MPEG4 Video (H264) 480x208 29.970fps 608 kbps
Аудио: AAC 48000Hz stereo 129 kbps
General
Complete name : КРОКОДИЛ ДАНДИ 1.mp4
Format : MPEG-4
Format profile : Base Media
Codec ID : isom
File size : 517 MiB
Duration : 1h 37mn
Overall bit rate : 741 Kbps
Encoded date : UTC 2010-12-06 23:47:02
Tagged date : UTC 2010-12-06 23:47:02

Video
ID : 1
Format : AVC
Format/Info : Advanced Video Codec
Format profile : <a href="mailto:Main@L3.0" class="postLink">Main@L3.0</a>
Format settings, CABAC : Yes
Format settings, ReFrames : 2 frames
Codec ID : avc1
Codec ID/Info : Advanced Video Coding
Duration : 1h 37mn
Bit rate mode : Variable
Bit rate : 608 Kbps
Maximum bit rate : 2 215 Kbps
Width : 480 pixels
Height : 208 pixels
Display aspect ratio : 2.35:1
Frame rate mode : Constant
Frame rate : 29.970 fps
Resolution : 8 bits
Colorimetry : 4:2:0
Scan type : Progressive
Bits/(Pixel*Frame) : 0.203
Stream size : 424 MiB (82%)
Writing library : x264 core 65 r999kMod cc51047
Encoding settings : cabac=1 / ref=2 / deblock=1:0:0 / analyse=0x1:0x131 / me=umh / subme=6 / psy_rd=1.0:0.0 / mixed_ref=1 / me_range=16 / chroma_me=1 / trellis=1 / 8x8dct=0 / cqm=0 / deadzone=21,11 / chroma_qp_offset=-2 / threads=2 / thread_queue=2 / nr=0 / decimate=1 / mbaff=0 / bframes=3 / b_pyramid=0 / b_adapt=1 / b_bias=0 / direct=1 / wpredb=1 / keyint=250 / keyint_min=25 / scenecut=40(pre) / rc=abr / bitrate=608 / ratetol=1.0 / qcomp=0.60 / qpmin=10 / qpmax=51 / qpstep=4 / ip_ratio=1.40 / pb_ratio=1.30 / aq=1:1.00
Encoded date : UTC 2010-12-06 23:47:02
Tagged date : UTC 2010-12-06 23:48:19

Audio
ID : 2
Format : AAC
Format/Info : Advanced Audio Codec
Format version : Version 4
Format profile : LC
Format settings, SBR : No
Codec ID : 40
Duration : 1h 37mn
Bit rate mode : Variable
Bit rate : 129 Kbps
Maximum bit rate : 157 Kbps
Channel(s) : 2 channels
Channel positions : L R
Sampling rate : 48.0 KHz
Stream size : 90.0 MiB (17%)
Encoded date : UTC 2010-12-06 23:48:15
Tagged date : UTC 2010-12-06 23:48:19



Трекер:  [ 02-Июн-2012 17:59 ]

  

Скачать .torrent

Размер .torrent файла 10 KB


Размер: 517 MB
Хэш (hash) релиза: fa563284a0b3b3c5b878d9d6093ecf3c58df929e
Подписка на обновления:

Еще никто не оставлял запись к записи скачать торрент [VIDEO4PSP] Крокодил Данди "Crocodile" Dundee . Будь первым!

!Обратная связь