Скачать через торрент [VIDEO4PSP] Как отделаться от парня за 10 дней How to Lose a Guy in 10 Days Фильм бесплатно в хорошем качестве torrent

Скачивайте на UnionPeer.org фильмы через торрент без регистрации. Новинки кино в хорошем качестве через торрент. На UnionPeer.org можно скачать через торрент фильмы 2014 и 2015 годов. Самые новые фильмы.

Скачать торрент [VIDEO4PSP] Как отделаться от парня за 10 дней How to Lose a Guy in 10 Days бесплатно через .torrent фильм мультфильм сериал

Если у вас наблюдаются проблемы со скриншотами, переходом по ссылками, скачиванием торрентов - проблемы в блокировщике рекламы AdBlock. #хорошегоДня!


Статистика раздачи
Размер:  645 MB   |    Зарегистрирован:  5 лет 5 месяцев   |    .torrent скачан:  67 раз   |   
Раздают:  1  
   
Загрузка...
 
Автор Сообщение

Galfimbul

avatar Galfimbul


Как отделаться от парня за 10 дней / How to Lose a Guy in 10 Days
Оригинальное название: How to Lose a Guy in 10 Days
Год выпуска: 2003
Страна: Германия, США
Жанр: комедия, мелодрама
Продолжительность: 01:55:30
Перевод: Профессиональный (полное дублирование)
Режиссер: Дональд Петри / Donald Petrie

В ролях: Кейт Хадсон /Kate Hudson/, Мэттью МакКонахи /Matthew McConaughey/, Кэтрин Хан /Kathryn Hahn/, Энни Пэрис /Annie Parisse/, Адам Голдберг /Adam Goldberg/, Томас Леннон /Thomas Lennon/ и др.

Описание: Журналистка Энди Андерсон из журнала получает довольно необычное редакционное задание, которое к тому же надо сделать очень быстро. Ей вменяется в обязанность написать статью о том, что выдумывают женщины для того, чтобы отделаться от мужчины, когда они его больше не хотят лицезреть рядом. На все про все у нее только 10 дней, через которые материал должен лежать на столе главного редактора.
Ей необходимо найти в толпе парня, влюбить в себя, а затем совершить все классические выкрутасы капризной красотки. На беду Энди ее выбор пал на молодого рекламного агента Бенджамина Бэрри, который сам как раз заключил со своим боссом пари, что он сможет влюбить в себя девушку за 10 дней. Может ли такое странное знакомство, основанное на авантюре и замешанное на лжи, привести к взаимности?
Качество: HDRip
Формат: MP4
Видео кодек: H.264
Аудио кодек: AAC
Видео: MPEG4 Video (H264) 480x272 23.976fps 650 kbps
Аудио: AAC 48000Hz stereo 129 kbps
General
Complete name : КАК ОТДЕЛАТЬСЯ ОТ ПАРНЯ ЗА 10 ДНЕЙ.mp4
Format : MPEG-4
Format profile : Base Media
Codec ID : isom
File size : 645 MiB
Duration : 1h 55mn
Overall bit rate : 781 Kbps
Encoded date : UTC 2011-01-10 23:36:42
Tagged date : UTC 2011-01-10 23:36:42

Video
ID : 1
Format : AVC
Format/Info : Advanced Video Codec
Format profile : <a href="mailto:Main@L2.1" class="postLink">Main@L2.1</a>
Format settings, CABAC : Yes
Format settings, ReFrames : 1 frame
Codec ID : avc1
Codec ID/Info : Advanced Video Coding
Duration : 1h 55mn
Bit rate mode : Variable
Bit rate : 650 Kbps
Maximum bit rate : 2 149 Kbps
Width : 480 pixels
Height : 272 pixels
Display aspect ratio : 16:9
Frame rate mode : Constant
Frame rate : 23.976 fps
Resolution : 8 bits
Colorimetry : 4:2:0
Scan type : Progressive
Bits/(Pixel*Frame) : 0.208
Stream size : 537 MiB (83%)
Writing library : x264 core 65 r999kMod cc51047
Encoding settings : cabac=1 / ref=1 / deblock=1:0:0 / analyse=0x1:0x111 / me=hex / subme=6 / psy_rd=1.0:0.0 / mixed_ref=0 / me_range=16 / chroma_me=1 / trellis=0 / 8x8dct=0 / cqm=0 / deadzone=21,11 / chroma_qp_offset=-2 / threads=2 / thread_queue=2 / nr=0 / decimate=1 / mbaff=0 / bframes=0 / keyint=250 / keyint_min=25 / scenecut=40(pre) / rc=abr / bitrate=650 / ratetol=1.0 / qcomp=0.60 / qpmin=10 / qpmax=51 / qpstep=4 / ip_ratio=1.40 / aq=1:1.00
Encoded date : UTC 2011-01-10 23:36:42
Tagged date : UTC 2011-01-10 23:38:51

Audio
ID : 2
Format : AAC
Format/Info : Advanced Audio Codec
Format version : Version 4
Format profile : LC
Format settings, SBR : No
Codec ID : 40
Duration : 1h 55mn
Bit rate mode : Variable
Bit rate : 129 Kbps
Maximum bit rate : 146 Kbps
Channel(s) : 2 channels
Channel positions : L R
Sampling rate : 48.0 KHz
Stream size : 106 MiB (16%)
Encoded date : UTC 2011-01-10 23:38:44
Tagged date : UTC 2011-01-10 23:38:51



Трекер:  [ 02-Июн-2012 21:06 ]

  

Скачать .torrent

Размер .torrent файла 13 KB


Размер: 645 MB
Хэш (hash) релиза: 104c70d3f7b0430552f8378c3425f3e0aac66da9
Подписка на обновления:

Еще никто не оставлял запись к записи скачать торрент [VIDEO4PSP] Как отделаться от парня за 10 дней How to Lose a Guy in 10 Days . Будь первым!

!Обратная связь